Скачать через торрент Lyriel - Дискография - 2005-2012 ALAC, lossless бесплатно русская версия torrent активатор

Если у вас наблюдаются проблемы со скриншотами, переходом по ссылками, скачиванием торрентов - проблемы в блокировщике рекламы AdBlock. #хорошегоДня!


Статистика раздачи
Размер:  1.39 GB   |    Зарегистрирован:  5 лет 5 месяцев   |    .torrent скачан:  43 раза   |   
Раздают:  1  
   
Загрузка...
 
Автор Сообщение

Galfimbul

avatar Galfimbul




Страна: Germany ll Год: 2005-2012 ll Жанр: Folk, Gothic Metal ll Продолжительность: 3,2 часа ll Тексты: вшиты
Обложки: вшиты ll Кодек: ALAC ll Программа-риповщик : foobar2000 + iTunes (lossless) ll Битрейт: lossless
О группе: Группа Lyriel была образована в городе Гуммерсбах (Германия) в 2003 году. Трое из семи участников коллектива раньше играли в группе Sorrowsend, существующей с 1994 года. Одним из этих троих и был основатель группы - Oliver Thierjung (гитара), решивший создать свой сайд-проект вместе с Джессикой. Два других музыканта Sorrowsend также присоединились к проекту Оливера: Sven Engelmann (бас) и Daniel de Beer (ударные). Было принято решение добавить некоторые другие музыкальные инструменты, и к группе присоединились Martin Ahman (клавишные), Linda Laukamp (виолончель) и Joon Laukamp (скрипка). Lyriel появилась на свет. Музыка группы представляет собой удивительной красоты сплав средневековых мелодий и своего уникального стиля. Чувственные баллады сменяются тяжелыми риффами, класическими аранжировками и элементами фолк-метала. И все это объединяет волшебный голос Джеcсики. Также стоит заметить, что живые скрипка и виолончель также являются отличительной особенностью Lyriel. По стилю группу можно назвать смешением Blackmore’s Night, Within Temptation и Nightwish.
01. At The Mindnightsgate
02. Prisonworld
03. The Crown Of The Twilight
04. Symmetry Of Disfiguration
05. The Singing Nightingale
06. Lind E-Huil
07. There’s A Rainbow In The Rain
08. Fate Of Knowledge
09. The Judgement Of My Harvest Heart
10. Day In June
11. The Spring And The Flight
12. Symmetry Of Disfiguration (Acoustic)
13. The Crown Of The Twilight (Acoustic)
  
Exact Audio Copy V0.99 prebeta 5 from 4. May 2009

EAC extraction logfile from 16. September 2011, 14:44

Lyriel / Prisonworld

Used drive : ASUS DRW-24B1ST Adapter: 0 ID: 0

Read mode : SecureUtilize accurate stream : YesDefeat audio cache : YesMake use of C2 pointers : No

Read offset correction : 6Overread into Lead-In and Lead-Out : NoFill up missing offset samples with silence : YesDelete leading and trailing silent blocks : NoNull samples used in CRC calculations : YesUsed interface : Native Win32 interface for Win NT & 2000

Used output format : Internal WAV RoutinesSample format : 44.100 Hz; 16 Bit; Stereo

TOC of the extracted CD

Track | Start | Length | Start sector | End sector --------------------------------------------------------- 1 | 0:00.00 | 1:31.09 | 0 | 6833 2 | 1:31.09 | 3:43.74 | 6834 | 23632 3 | 5:15.08 | 3:22.51 | 23633 | 38833 4 | 8:37.59 | 3:48.35 | 38834 | 55968 5 | 12:26.19 | 3:22.22 | 55969 | 71140 6 | 15:48.41 | 5:31.50 | 71141 | 96015 7 | 21:20.16 | 4:02.69 | 96016 | 114234 8 | 25:23.10 | 4:21.24 | 114235 | 133833 9 | 29:44.34 | 1:23.06 | 133834 | 140064 10 | 31:07.40 | 3:47.18 | 140065 | 157107 11 | 34:54.58 | 4:14.41 | 157108 | 176198 12 | 39:09.24 | 3:47.14 | 176199 | 193237 13 | 42:56.38 | 3:20.38 | 193238 | 208275

Range status and errors

Selected range

Filename D:\rutracker\Lyriel - Prisonworld.wav

Peak level 100.0 % Range quality 100.0 % Test CRC 9F6B4D45 Copy CRC 9F6B4D45 Copy OK

No errors occurred

AccurateRip summary

Track 1 accurately ripped (confidence 6) [9161592E]Track 2 accurately ripped (confidence 6) [80674D8F]Track 3 accurately ripped (confidence 6) [7AAF2BB6]Track 4 accurately ripped (confidence 6) [C5308E95]Track 5 accurately ripped (confidence 6) [DFC9EC14]Track 6 accurately ripped (confidence 6) [D7CE5F0B]Track 7 accurately ripped (confidence 6) [25B4C393]Track 8 accurately ripped (confidence 6) [B699E7CB]Track 9 accurately ripped (confidence 6) [4AA1D175]Track 10 accurately ripped (confidence 7) [C039E930]Track 11 accurately ripped (confidence 6) [89D388DF]Track 12 accurately ripped (confidence 6) [8EAF7BC7]Track 13 accurately ripped (confidence 6) [955128BE]

All tracks accurately ripped

End of status report
01. First Autumn Days
02. Surrender In Dance
03. Memoria
04. My Favourite Dream
05. Promised Land
06. Days Of Yore
07. Fairyland
08. Autumntales
09. Wild Birds
10. Hijo De La Luna
11. Enchanted Moonlight
12. Regen
13. Last Autumn Days
14. My Favourite Dream - Dedicated
  
Exact Audio Copy V0.99 prebeta 5 from 4. May 2009

Отчёт EAC об извлечении, выполненном 29. апреля 2011, 18:24

Lyriel / Autumntales

Дисковод: ASUS DRW-24B1ST Adapter: 0 ID: 0

Режим чтения : ДостоверностьИспользование точного потока : ДаОтключение кэша аудио : ДаИспользование указателей C2 : Нет

Коррекция смещения при чтении : 6Способность читать области Lead-in и Lead-out : НетЗаполнение пропущенных сэмплов тишиной : ДаУдаление блоков с тишиной в начале и конце : НетПри вычислениях CRC использовались нулевые сэмплы : ДаИнтерфейс : Встроенный Win32-интерфейс для Win NT/2000

Выходной формат : Пользовательский кодировщикВыбранный битрейт : 320 kBit/sКачество : ВысокийДобавление ID3-тэга : НетУтилита сжатия : C:\Program Files\Exact Audio Copy\Flac\flac.exe

TOC извлечённого CD

Трек | Старт | Длительность | Начальный сектор | Конечный сектор --------------------------------------------------------------------- 1 | 0:00.00 | 2:05.70 | 0 | 9444 2 | 2:05.70 | 3:44.45 | 9445 | 26289 3 | 5:50.40 | 3:36.31 | 26290 | 42520 4 | 9:26.71 | 3:46.41 | 42521 | 59511 5 | 13:13.37 | 3:18.48 | 59512 | 74409 6 | 16:32.10 | 4:10.46 | 74410 | 93205 7 | 20:42.56 | 3:44.48 | 93206 | 110053 8 | 24:27.29 | 4:08.62 | 110054 | 128715 9 | 28:36.16 | 3:13.54 | 128716 | 143244 10 | 31:49.70 | 4:08.15 | 143245 | 161859 11 | 35:58.10 | 4:50.24 | 161860 | 183633 12 | 40:48.34 | 4:04.39 | 183634 | 201972 13 | 44:52.73 | 1:26.00 | 201973 | 208422 14 | 46:18.73 | 3:46.12 | 208423 | 225384

Характеристики диапазона извлечения и сообщения об ошибках

Выбранный диапазон

Имя файла D:\rutracker\Lyriel - Autumntales\Lyriel - Autumntales.wav

Пиковый уровень 99.2 % Качество диапазона 100.0 % CRC теста DBDDD36A CRC копии DBDDD36A Копирование... OK

Ошибок не произошло

AccurateRip: сводка

Трек 1 точность не определена (достоверность 2) [7FE8EA52], AccurateRip вернул [EA8DD76D]Трек 2 точность не определена (достоверность 2) [616788B6], AccurateRip вернул [057D91CB]Трек 3 точность не определена (достоверность 2) [42595F54], AccurateRip вернул [5ECB0C00]Трек 4 точность не определена (достоверность 2) [A8DE4818], AccurateRip вернул [F83653D6]Трек 5 точность не определена (достоверность 2) [2279D723], AccurateRip вернул [559EE939]Трек 6 точность не определена (достоверность 2) [5DCFDDF8], AccurateRip вернул [4073E88E]Трек 7 точность не определена (достоверность 2) [C910ED29], AccurateRip вернул [4FABBFE9]Трек 8 точность не определена (достоверность 2) [50D084D3], AccurateRip вернул [DA9C612D]Трек 9 точность не определена (достоверность 2) [73660EDC], AccurateRip вернул [9C67BACE]Трек 10 точность не определена (достоверность 2) [33CBB675], AccurateRip вернул [AE7E0707]Трек 11 точность не определена (достоверность 2) [E3857A1C], AccurateRip вернул [F98C89C8]Трек 12 точность не определена (достоверность 2) [BD90B530], AccurateRip вернул [F8022900]Трек 13 точность не определена (достоверность 2) [104E85F6], AccurateRip вернул [A09BB81A]Трек 14 точность не определена (достоверность 2) [9C35C92A], AccurateRip вернул [695FCBB6]

Ни один трек не прошёл проверки на точностьВ вашей базе может быть иной вариант штамповки диска

Конец отчёта
01. Opening
02. Welcome
03. Like A feather In The wind
04. The Regret
05. Elderberry And Lavender
06. Lullaby
07. Foeman's Bride
08. The Wolf
09. So Long, My love
10. My Unawakened Soul
11. Paranoid Circus
12. The Wheel Of Fortuna
13. The Way To Nowhere
14. Another Time
15. Conclusion
16. Paranoid Circus (Orchestral Version)
17. The Regret (Machin8 Remix)
  
Exact Audio Copy V1.0 beta 3 from 29. August 2011

EAC extraction logfile from 17. February 2012, 21:04

Lyriel / Paranoid Circus

Used drive : TSSTcorpDVDWBD SH-B123L Adapter: 0 ID: 2

Read mode : SecureUtilize accurate stream : YesDefeat audio cache : YesMake use of C2 pointers : No

Read offset correction : 6Overread into Lead-In and Lead-Out : NoFill up missing offset samples with silence : YesDelete leading and trailing silent blocks : NoNull samples used in CRC calculations : YesUsed interface : Native Win32 interface for Win NT & 2000Gap handling : Appended to previous track

Used output format : User Defined EncoderSelected bitrate : 896 kBit/sQuality : HighAdd ID3 tag : NoCommand line compressor : C:\Program Files (x86)\Exact Audio Copy\Flac\flac.exeAdditional command line options : -8 -V -T "ARTIST=%artist%" -T "TITLE=%title%" -T "ALBUM=%albumtitle%" -T "DATE=%year%" -T "TRACKNUMBER=%tracknr%" -T "GENRE=%genre%" -T "PERFORMER=%albuminterpret%" -T "COMPOSER=%composer%" %haslyrics%--tag-from-file=LYRICS="%lyricsfile%"%haslyrics% -T "ALBUMARTIST=%albumartist%" -T "DISCNUMBER=%cdnumber%" -T "TOTALDISCS=%totalcds%" -T "TOTALTRACKS=%numtracks%" -T "COMMENT=%comment%" %source% -o %dest%

TOC of the extracted CD

Track | Start | Length | Start sector | End sector --------------------------------------------------------- 1 | 0:00.00 | 0:43.27 | 0 | 3251 2 | 0:43.27 | 3:39.73 | 3252 | 19749 3 | 4:23.25 | 4:01.70 | 19750 | 37894 4 | 8:25.20 | 3:03.26 | 37895 | 51645 5 | 11:28.46 | 3:55.25 | 51646 | 69295 6 | 15:23.71 | 4:03.12 | 69296 | 87532 7 | 19:27.08 | 3:24.31 | 87533 | 102863 8 | 22:51.39 | 5:02.42 | 102864 | 125555 9 | 27:54.06 | 4:16.42 | 125556 | 144797 10 | 32:10.48 | 0:57.61 | 144798 | 149133 11 | 33:08.34 | 4:04.51 | 149134 | 167484 12 | 37:13.10 | 4:34.36 | 167485 | 188070 13 | 41:47.46 | 0:47.06 | 188071 | 191601 14 | 42:34.52 | 4:17.68 | 191602 | 210944 15 | 46:52.45 | 0:42.20 | 210945 | 214114 16 | 47:34.65 | 3:36.67 | 214115 | 230381 17 | 51:11.57 | 4:31.17 | 230382 | 250723

Track 1

Filename E:\Rips\Music\Lyriel - Paranoid Circus [2011] [FLAC]\01 - Opening.wav

Pre-gap length 0:00:02.00

Peak level 100.0 % Extraction speed 1.4 X Track quality 100.0 % Test CRC F7E8DE52 Copy CRC F7E8DE52 Track not present in AccurateRip database Copy OK

Track 2

Filename E:\Rips\Music\Lyriel - Paranoid Circus [2011] [FLAC]\02 - Welcome.wav

Peak level 100.0 % Extraction speed 2.0 X Track quality 100.0 % Test CRC 4F2C6AED Copy CRC 4F2C6AED Track not present in AccurateRip database Copy OK

Track 3

Filename E:\Rips\Music\Lyriel - Paranoid Circus [2011] [FLAC]\03 - The Feather In The wind.wav

Peak level 100.0 % Extraction speed 2.2 X Track quality 100.0 % Test CRC 653C84AB Copy CRC 653C84AB Track not present in AccurateRip database Copy OK

Track 4

Filename E:\Rips\Music\Lyriel - Paranoid Circus [2011] [FLAC]\04 - The Regret.wav

Peak level 100.0 % Extraction speed 2.3 X Track quality 100.0 % Test CRC 8E8B6086 Copy CRC 8E8B6086 Track not present in AccurateRip database Copy OK

Track 5

Filename E:\Rips\Music\Lyriel - Paranoid Circus [2011] [FLAC]\05 - Elderberry And Lavender.wav

Peak level 100.0 % Extraction speed 2.5 X Track quality 100.0 % Test CRC 87BC5CF7 Copy CRC 87BC5CF7 Track not present in AccurateRip database Copy OK

Track 6

Filename E:\Rips\Music\Lyriel - Paranoid Circus [2011] [FLAC]\06 - Lullaby.wav

Peak level 100.0 % Extraction speed 2.7 X Track quality 100.0 % Test CRC 832A066D Copy CRC 832A066D Track not present in AccurateRip database Copy OK

Track 7

Filename E:\Rips\Music\Lyriel - Paranoid Circus [2011] [FLAC]\07 - Foeman's bride.wav

Peak level 100.0 % Extraction speed 2.8 X Track quality 100.0 % Test CRC 1F0E4755 Copy CRC 1F0E4755 Track not present in AccurateRip database Copy OK

Track 8

Filename E:\Rips\Music\Lyriel - Paranoid Circus [2011] [FLAC]\08 - The Wolf.wav

Peak level 100.0 % Extraction speed 3.1 X Track quality 100.0 % Test CRC 683D7395 Copy CRC 683D7395 Track not present in AccurateRip database Copy OK

Track 9

Filename E:\Rips\Music\Lyriel - Paranoid Circus [2011] [FLAC]\09 - So Long.wav

Peak level 100.0 % Extraction speed 3.2 X Track quality 100.0 % Test CRC 877043AA Copy CRC 877043AA Track not present in AccurateRip database Copy OK

Track 10

Filename E:\Rips\Music\Lyriel - Paranoid Circus [2011] [FLAC]\10 - My Unawakened Soul.wav

Peak level 88.8 % Extraction speed 2.3 X Track quality 100.0 % Test CRC 9A3FF072 Copy CRC 9A3FF072 Track not present in AccurateRip database Copy OK

Track 11

Filename E:\Rips\Music\Lyriel - Paranoid Circus [2011] [FLAC]\11 - Paranoid Circus.wav

Peak level 100.0 % Extraction speed 2.7 X Track quality 99.9 % Test CRC 31760CDF Copy CRC 31760CDF Track not present in AccurateRip database Copy OK

Track 12

Filename E:\Rips\Music\Lyriel - Paranoid Circus [2011] [FLAC]\12 - The Wheel Of Fortuna.wav

Peak level 100.0 % Extraction speed 3.6 X Track quality 100.0 % Test CRC E8620F72 Copy CRC E8620F72 Track not present in AccurateRip database Copy OK

Track 13

Filename E:\Rips\Music\Lyriel - Paranoid Circus [2011] [FLAC]\13 - The Way To Nowhere.wav

Peak level 100.0 % Extraction speed 2.3 X Track quality 100.0 % Test CRC 9BFB46D7 Copy CRC 9BFB46D7 Track not present in AccurateRip database Copy OK

Track 14

Filename E:\Rips\Music\Lyriel - Paranoid Circus [2011] [FLAC]\14 - Another Time.wav

Peak level 100.0 % Extraction speed 3.7 X Track quality 100.0 % Test CRC C0EBF3AB Copy CRC C0EBF3AB Track not present in AccurateRip database Copy OK

Track 15

Filename E:\Rips\Music\Lyriel - Paranoid Circus [2011] [FLAC]\15 - Conclusion.wav

Peak level 51.8 % Extraction speed 2.3 X Track quality 100.0 % Test CRC 99BA2D7F Copy CRC 99BA2D7F Track not present in AccurateRip database Copy OK

Track 16

Filename E:\Rips\Music\Lyriel - Paranoid Circus [2011] [FLAC]\16 - Paranoid Circus (Orchestral Version).wav

Peak level 100.0 % Extraction speed 3.8 X Track quality 100.0 % Test CRC C5CD6566 Copy CRC C5CD6566 Track not present in AccurateRip database Copy OK

Track 17

Filename E:\Rips\Music\Lyriel - Paranoid Circus [2011] [FLAC]\17 - The Regret (Machin8 Remix).wav

Peak level 100.0 % Extraction speed 3.0 X Track quality 99.9 % Test CRC F61085C6 Copy CRC F61085C6 Accurately ripped (confidence 2) [C4EE7B35] (AR v1) Copy OK

1 track(s) accurately ripped16 track(s) not present in the AccurateRip database

Some tracks could not be verified as accurate

No errors occurred

End of status report

==== Log checksum 6A7B98210C591A6304092AB725BB7D3E3EC0080353500E5E1318C67ECD86C3E7 ====
  
ват.сд
[spoiler=(2012) Leverage]
01. Intro
02. Leverage
03. Parting
04. Voices In My Head
05. The Road Not Taken
06. White Lilly
07. Aus Der Tiefe
08. Wenn Die Engel Fallen
09. Side By Side
10. Repentance
11. Everything Is Coming Up Roses
12. Star Of The County Down
  
Exact Audio Copy V1.0 beta 2 from 29. April 2011

EAC extraction logfile from 24. February 2012, 21:03

Lyriel / Leverage

Used drive : ATAPI DVD A DH16ABSH Adapter: 0 ID: 1

Read mode : SecureUtilize accurate stream : YesDefeat audio cache : YesMake use of C2 pointers : No

Read offset correction : 6Overread into Lead-In and Lead-Out : NoFill up missing offset samples with silence : YesDelete leading and trailing silent blocks : NoNull samples used in CRC calculations : YesUsed interface : Installed external ASPI interface

Used output format : Internal WAV RoutinesSample format : 44.100 Hz; 16 Bit; Stereo

TOC of the extracted CD

Track | Start | Length | Start sector | End sector --------------------------------------------------------- 1 | 0:00.00 | 1:39.30 | 0 | 7454 2 | 1:39.30 | 3:49.39 | 7455 | 24668 3 | 5:28.69 | 3:24.05 | 24669 | 39973 4 | 8:52.74 | 4:16.74 | 39974 | 59247 5 | 13:09.73 | 3:44.30 | 59248 | 76077 6 | 16:54.28 | 4:05.11 | 76078 | 94463 7 | 20:59.39 | 3:21.61 | 94464 | 109599 8 | 24:21.25 | 3:21.06 | 109600 | 124680 9 | 27:42.31 | 3:00.65 | 124681 | 138245 10 | 30:43.21 | 4:01.35 | 138246 | 156355 11 | 34:44.56 | 3:24.37 | 156356 | 171692 12 | 38:09.18 | 3:58.48 | 171693 | 189590

Range status and errors

Selected range

Filename D:\Lyriel - Leverage.wav

Peak level 98.8 % Extraction speed 7.9 X Range quality 99.9 % Test CRC CDA66BA8 Copy CRC CDA66BA8 Copy OK

No errors occurred

AccurateRip summary

Track 1 not present in databaseTrack 2 not present in databaseTrack 3 not present in databaseTrack 4 not present in databaseTrack 5 not present in databaseTrack 6 not present in databaseTrack 7 not present in databaseTrack 8 not present in databaseTrack 9 not present in databaseTrack 10 not present in databaseTrack 11 not present in databaseTrack 12 not present in database

None of the tracks are present in the AccurateRip database

End of status report


Трекер:  [ 06-Май-2012 14:48 ]

  

Скачать .torrent

Размер .torrent файла 18 KB


Размер: 1.39 GB
Хэш (hash) релиза: 754ad665f4f2a52a4e57bdbd06eb2a8c8c50390f

Еще никто не оставлял запись к записи скачать торрент Lyriel - Дискография - 2005-2012 ALAC, lossless . Будь первым!

!Обратная связь