Скачать через торрент Это Хорошо This Is Horosho бесплатно русская версия torrent активатор

Если у вас наблюдаются проблемы со скриншотами, переходом по ссылками, скачиванием торрентов - проблемы в блокировщике рекламы AdBlock. #хорошегоДня!


Статистика раздачи
Размер:  4.57 GB   |    Зарегистрирован:  5 лет 5 месяцев   |    .torrent скачан:  100 раз   |   
Раздают:  1  
   
Загрузка...
 
Автор Сообщение

L


Это Хорошо / This Is Horosho

Год выпуска: 2010-2012
Страна: Латвия
Жанр: Видеообзоры, юмор
Продолжительность: ~5 минут
Перевод : Не требуется
Русские субтитры: нет

Количество серий: 103 (от 29.02.2012)

Режиссёр: Виталий Голованов

В ролях: Стас Давыдов, Настенька.

Описание: От :
Кто мы?
Мы — трио, которое занимается различными креативными (и не очень) вещами. Среди них — видеоблог «This is Хорошо».

Наше шоу посвящено обзорам вирусных (и не очень) видео. Стартовало все это дело 14 октября 2010 года: суровой латвийской осенью видео «Димас каскадер звуковой барьер переходит» сподвигло нас снять и выложить в интернет первый выпуск «This is Хорошо».

Качество: WEBRip
Формат: *.m4v
Видео кодек: H.264
аудио кодек: ААС
Разрешение: 576x320
Другие параметры видео: 850 Кбит/сек 24,000 кадра/сек
Аудио: 44,1 КГц 128 Кбит/сек
Телешоу: прописан
Вшитая обложка: есть
Главы: прописаны
Серия/сезон: прописан
Общее
Полное имя : D:\miltimedia\Видео\This_is_Horosho\001_Pormo-rolik.m4v
Формат : MPEG-4
Профиль формата : Base Media / Version 2
Идентификатор кодека : mp42
Размер файла : 6,48 Мбайт
Продолжительность : 55 с.
Режим общего битрейта : Переменный
Общий поток : 986 Кбит/сек
Название фильма : Пормо-ролик 8)
Трек/Положение : 1
Трек/Всего : 0
Исполнитель : This is Хорошо
Дата кодирования : UTC 2012-03-01 03:20:20
Дата пометки : UTC 2012-03-01 14:41:25
Программа кодирования : HandBrake 0.9.5 2011010300
Обложка : Yes
tvsh : This is Хорошо
tven : 0101
tvsn : 1
tves : 1
sosn : This is Хорошо
hdvd : 0
stik : 10

Видео
Идентификатор : 1
Формат : AVC
Формат/Информация : Advanced Video Codec
Профиль формата : <a href="mailto:Baseline@L2.1" class="postLink">Baseline@L2.1</a>
Параметр CABAC формата : Нет
Параметр ReFrames формата : 2 кадра
Идентификатор кодека : avc1
Идентификатор кодека/Информация : Advanced Video Coding
Продолжительность : 55 с.
Вид битрейта : Переменный
Битрейт : 850 Кбит/сек
Ширина : 576 пикселей
Высота : 320 пикселей
Соотношение сторон : 16:9
Режим частоты кадров : Постоянный
Частота кадров : 24,000 кадра/сек
Цветовое пространство : YUV
Субдискретизация насыщенности : 4:2:0
Битовая глубина : 8 бит
Тип развёртки : Прогрессивная
Бит/(Пиксели*Кадры) : 0.192
Размер потока : 5,56 Мбайт (86%)
Библиотека кодирования : x264 core 112
Настройки программы : cabac=0 / ref=2 / deblock=1:0:0 / analyse=0x1:0x111 / me=umh / subme=6 / psy=1 / psy_rd=1.00:0.00 / mixed_ref=1 / me_range=16 / chroma_me=1 / trellis=0 / 8x8dct=0 / cqm=0 / deadzone=21,11 / fast_pskip=1 / chroma_qp_offset=-2 / threads=6 / sliced_threads=0 / nr=0 / decimate=1 / interlaced=0 / constrained_intra=0 / bframes=0 / weightp=0 / keyint=240 / keyint_min=24 / scenecut=40 / intra_refresh=0 / rc_lookahead=40 / rc=2pass / mbtree=1 / bitrate=850 / ratetol=1.0 / qcomp=0.60 / qpmin=3 / qpmax=51 / qpstep=4 / cplxblur=20.0 / qblur=0.5 / ip_ratio=1.40 / aq=1:1.00
Дата кодирования : UTC 2012-03-01 03:20:20
Дата пометки : UTC 2012-03-01 03:20:26
Основные цвета : BT.601-6 525, BT.1358 525, BT.1700 NTSC, SMPTE 170M
Характеристики трансфера : BT.709-5, BT.1361
Коэффициенты матрицы : BT.601-6 525, BT.1358 525, BT.1700 NTSC, SMPTE 170M

Аудио
Идентификатор : 2
Формат : AAC
Формат/Информация : Advanced Audio Codec
Профиль формата : LC
Идентификатор кодека : 40
Продолжительность : 54 с.
Вид битрейта : Переменный
Битрейт : 128 Кбит/сек
Максимальный битрейт : 218 Кбит/сек
Каналы : 2 канала
Расположение каналов : Front: L R
Частота : 44,1 КГц
Метод сжатия : С потерями
Размер потока : 859 Кбайт (13%)
Дата кодирования : UTC 2012-03-01 03:20:20
Дата пометки : UTC 2012-03-01 03:20:26


Трекер:  [ 11-Май-2012 20:08 ]

  

Скачать .torrent

Размер .torrent файла 18 KB


Размер: 4.57 GB
Хэш (hash) релиза: 1c1a86deb554abfff609f4ce56761fa050e36e3c

Еще никто не оставлял запись к записи скачать торрент Это Хорошо This Is Horosho . Будь первым!

!Обратная связь