Скачать через торрент VA - Прэмер Тузін 2005 - 2011. Тузін ПЕРАЗАГРУЗКА. Будзьма. Тузін. ПЕРАЗАГРУЗКА 2 бесплатно русская версия torrent активатор

Если у вас наблюдаются проблемы со скриншотами, переходом по ссылками, скачиванием торрентов - проблемы в блокировщике рекламы AdBlock. #хорошегоДня!


Статистика раздачи
Размер:  3.18 GB   |    Зарегистрирован:  5 лет 5 месяцев   |    .torrent скачан:  33 раза   |   
Раздают:  1  
   
Загрузка...
 
Автор Сообщение

Galfimbul

avatar Galfimbul


VA - Прэм'ер Тузін 2005 - 2011. Тузін ПЕРАЗАГРУЗКА. Будзьма. Тузін. ПЕРАЗАГРУЗКА 2



Год: 2005 - 2011
Страна: Беларусь
Жанр: Rock / Folk
Тип издания: сборники
Продолжительность: 06:15:23
Тексты: отсутствуют
Кодек: ALAC
Программа-риповщик : foobar2000 + iTunes (lossless)
Битрейт: lossless
Треклист:
01. Айша - Чорны барон
02. :B:N: - Сьпіралі
03. Partyzone feat. Руся - Маё сэрца
04. Neuro Dubel - Жыцьцё
05. Крамбамбуля - Турысты
06. UltraВожык - Атлянтыда
07. Вайцюшкевіч і WZ-Orkiestra - Вясновы дзень
08. J_Морс - Так-цік-так
09. IQ48 feat. Памідораў - Выйсьце
10. Indiga - Людзі
11. ZET - Белакрылы анёл
12. zygimont VAZA - Лякарня
Exact Audio Copy V0.99 prebeta 5 from 4. May 2009

Отчёт EAC об извлечении, выполненном 13. февраля 2011, 9:38

- / Прэм'ер Тузін 2005

Дисковод: _NEC DVD_RW ND-3550A Adapter: 0 ID: 0

Режим чтения : Достоверность
Использование точного потока : Да
Отключение кэша аудио : Да
Использование указателей C2 : Нет

Коррекция смещения при чтении : 48
Способность читать области Lead-in и Lead-out : Нет
Заполнение пропущенных сэмплов тишиной : Да
Удаление блоков с тишиной в начале и конце : Нет
При вычислениях CRC использовались нулевые сэмплы : Да
Интерфейс : Установленный внешний ASPI-интерфейс

Выходной формат : Внутренние WAV-операции
Формат сэмплов : 44.100 Гц; 16 бит; стерео

TOC извлечённого CD

Трек | Старт | Длительность | Начальный сектор | Конечный сектор
---------------------------------------------------------------------
1 | 0:00.00 | 3:28.15 | 0 | 15614
2 | 3:28.15 | 3:12.24 | 15615 | 30038
3 | 6:40.39 | 3:40.73 | 30039 | 46611
4 | 10:21.37 | 3:32.64 | 46612 | 62575
5 | 13:54.26 | 3:05.07 | 62576 | 76457
6 | 16:59.33 | 3:37.44 | 76458 | 92776
7 | 20:37.02 | 5:30.70 | 92777 | 117596
8 | 26:07.72 | 3:48.20 | 117597 | 134716
9 | 29:56.17 | 3:56.74 | 134717 | 152490
10 | 33:53.16 | 3:58.66 | 152491 | 170406
11 | 37:52.07 | 3:39.11 | 170407 | 186842
12 | 41:31.18 | 6:36.56 | 186843 | 216598
13 | 50:39.74 | 13:54.03 | 227999 | 290551

Характеристики диапазона извлечения и сообщения об ошибках

Выбранный диапазон

Имя файла F:\Music lossless\Прэм'ер Тузін 2005.wav

Пиковый уровень 100.0 %
Качество диапазона 99.9 %
CRC теста FEFAFCC7
CRC копии FEFAFCC7
Копирование... OK

Ошибок не произошло

AccurateRip: сводка

Трек 1 нет в базе данных
Трек 2 нет в базе данных
Трек 3 нет в базе данных
Трек 4 нет в базе данных
Трек 5 нет в базе данных
Трек 6 нет в базе данных
Трек 7 нет в базе данных
Трек 8 нет в базе данных
Трек 9 нет в базе данных
Трек 10 нет в базе данных
Трек 11 нет в базе данных
Трек 12 нет в базе данных

Ни одного трека нет в базе AccurateRip

Конец отчёта
01. IQ 48 – Сьвятло ў цемры
02. UltraВожык – Фабрыка сноў
03. Айша – Зь вераю
04. Вікторыя і Варашкевіч – Мне бы ў неба
05. Зьміцер Вайцюшкевіч – Дарога
06. Палац – Праваджала маці сына
07. Валік Грышко – На далонях вясны
08. ZigZag – Кастрычнік
09. Imperator – Уздымайце запальніцы
10. КальЯн – Радыёактыўны сьнег
11. Несьцярэнка і White night Blues – Знаю столькі пяшчотаў
12. Ігар Варашкевіч і Лявон Вольскі – Аўтабіяграфія
Exact Audio Copy V0.99 prebeta 5 from 4. May 2009

Отчёт EAC об извлечении, выполненном 13. февраля 2011, 9:38

- / Прэм'ер Тузін 2005

Дисковод: _NEC DVD_RW ND-3550A Adapter: 0 ID: 0

Режим чтения : Достоверность
Использование точного потока : Да
Отключение кэша аудио : Да
Использование указателей C2 : Нет

Коррекция смещения при чтении : 48
Способность читать области Lead-in и Lead-out : Нет
Заполнение пропущенных сэмплов тишиной : Да
Удаление блоков с тишиной в начале и конце : Нет
При вычислениях CRC использовались нулевые сэмплы : Да
Интерфейс : Установленный внешний ASPI-интерфейс

Выходной формат : Внутренние WAV-операции
Формат сэмплов : 44.100 Гц; 16 бит; стерео

TOC извлечённого CD

Трек | Старт | Длительность | Начальный сектор | Конечный сектор
---------------------------------------------------------------------
1 | 0:00.00 | 3:28.15 | 0 | 15614
2 | 3:28.15 | 3:12.24 | 15615 | 30038
3 | 6:40.39 | 3:40.73 | 30039 | 46611
4 | 10:21.37 | 3:32.64 | 46612 | 62575
5 | 13:54.26 | 3:05.07 | 62576 | 76457
6 | 16:59.33 | 3:37.44 | 76458 | 92776
7 | 20:37.02 | 5:30.70 | 92777 | 117596
8 | 26:07.72 | 3:48.20 | 117597 | 134716
9 | 29:56.17 | 3:56.74 | 134717 | 152490
10 | 33:53.16 | 3:58.66 | 152491 | 170406
11 | 37:52.07 | 3:39.11 | 170407 | 186842
12 | 41:31.18 | 6:36.56 | 186843 | 216598
13 | 50:39.74 | 13:54.03 | 227999 | 290551

Характеристики диапазона извлечения и сообщения об ошибках

Выбранный диапазон

Имя файла F:\Music lossless\Прэм'ер Тузін 2005.wav

Пиковый уровень 100.0 %
Качество диапазона 99.9 %
CRC теста FEFAFCC7
CRC копии FEFAFCC7
Копирование... OK

Ошибок не произошло

AccurateRip: сводка

Трек 1 нет в базе данных
Трек 2 нет в базе данных
Трек 3 нет в базе данных
Трек 4 нет в базе данных
Трек 5 нет в базе данных
Трек 6 нет в базе данных
Трек 7 нет в базе данных
Трек 8 нет в базе данных
Трек 9 нет в базе данных
Трек 10 нет в базе данных
Трек 11 нет в базе данных
Трек 12 нет в базе данных

Ни одного трека нет в базе AccurateRip

Конец отчёта
01. N.R.M. – Miensk i Minsk (N.R.M. / Л.Вольскі)
02. NESTARы BAND – Агні гараць (Ю.Несьцярэнка / Л.Рублеўская)
03. OSIMIRA – Зязюля мыя серыя (А.Палаўчэня, Osimira / народныя)
04. PitBull – Maju nadzieju (PitBull)
05. Бан-Жвірба – Малпы (Бан-Жвірба / Зьм.Вінаградаў)
06. Рокаш – Крумкач (П.Дулінец / Л.Казакоў)
07. Band A – Рэвалюцыя (Band A)
08. Krama – Неба – лёс арла (І.Варашкевіч, С.Трухановіч / Н.Гулак)
09. ZET – Love Story – Don`t Worry (ZET / Канцлер)
10. :B:N: – Dazdzami (А.Лютыч / С.Машковіч)
11. IQ48 – Схаванае сэрца (IQ48 / М.Анемпадыстаў)
12. Tav.Mauzer – Калыханка (Я.Маўзэр)
Exact Audio Copy V0.99 prebeta 5 from 4. May 2009

Отчёт EAC об извлечении, выполненном 26. июня 2011, 13:18

Various / Прэм'ер Тузін 2007

Дисковод: _NEC DVD_RW ND-3550A Adapter: 0 ID: 0

Режим чтения : Достоверность
Использование точного потока : Да
Отключение кэша аудио : Да
Использование указателей C2 : Нет

Коррекция смещения при чтении : 48
Способность читать области Lead-in и Lead-out : Нет
Заполнение пропущенных сэмплов тишиной : Да
Удаление блоков с тишиной в начале и конце : Нет
При вычислениях CRC использовались нулевые сэмплы : Да
Интерфейс : Установленный внешний ASPI-интерфейс

Выходной формат : Внутренние WAV-операции
Формат сэмплов : 44.100 Гц; 16 бит; стерео

TOC извлечённого CD

Трек | Старт | Длительность | Начальный сектор | Конечный сектор
---------------------------------------------------------------------
1 | 0:00.00 | 4:24.14 | 0 | 19813
2 | 4:24.14 | 3:58.26 | 19814 | 37689
3 | 8:22.40 | 3:13.26 | 37690 | 52190
4 | 11:35.66 | 4:13.11 | 52191 | 71176
5 | 15:49.02 | 4:27.57 | 71177 | 91258
6 | 20:16.59 | 3:04.28 | 91259 | 105086
7 | 23:21.12 | 2:55.65 | 105087 | 118276
8 | 26:17.02 | 4:33.61 | 118277 | 138812
9 | 30:50.63 | 3:10.41 | 138813 | 153103
10 | 34:01.29 | 4:40.12 | 153104 | 174115
11 | 38:41.41 | 4:38.63 | 174116 | 195028
12 | 43:20.29 | 3:08.70 | 195029 | 209198
13 | 49:01.24 | 12:19.66 | 220599 | 276089

Характеристики диапазона извлечения и сообщения об ошибках

Выбранный диапазон

Имя файла F:\Music lossless\Various - Прэм'ер Тузін 2007.wav

Пиковый уровень 100.0 %
Качество диапазона 100.0 %
CRC теста 0969941F
CRC копии 0969941F
Копирование... OK

Ошибок не произошло

AccurateRip: сводка

Трек 1 нет в базе данных
Трек 2 нет в базе данных
Трек 3 нет в базе данных
Трек 4 нет в базе данных
Трек 5 нет в базе данных
Трек 6 нет в базе данных
Трек 7 нет в базе данных
Трек 8 нет в базе данных
Трек 9 нет в базе данных
Трек 10 нет в базе данных
Трек 11 нет в базе данных
Трек 12 нет в базе данных

Ни одного трека нет в базе AccurateRip

Конец отчёта
01. IQ48 — Гэй, наперад!
02. Глюкі — АntiEMO (Parket)
03. Jab Club — Вуліца дым
04. Neuro Dubel — Підарасы
05. Nevma — Ня веру табе
06. :B:N: — Загiнулым паэтам прысьвячаецца
07. Сьцяна — Калыханка
08. OSIMIRA — Сяньня Купала, заўтра Ян
09. Рокаш — Восень
10. Тацьцяна Беланогая — “Белая птушка
11. ILO & Friends — Synu
12. J:мoрс — Зорка Вэнэра
Exact Audio Copy V0.99 prebeta 4 from 23. January 2008

EAC extraction logfile from 7. March 2009, 18:17

Premier / Tuzin

Used drive : _NEC DVD_RW ND-4570A Adapter: 0 ID: 0

Read mode : Secure
Utilize accurate stream : Yes
Defeat audio cache : Yes
Make use of C2 pointers : No

Read offset correction : 48
Overread into Lead-In and Lead-Out : No
Fill up missing offset samples with silence : Yes
Delete leading and trailing silent blocks : No
Null samples used in CRC calculations : Yes
Used interface : Native Win32 interface for Win NT & 2000

Used output format : Internal WAV Routines
Sample format : 44.100 Hz; 16 Bit; Stereo

TOC of the extracted CD

Track | Start | Length | Start sector | End sector
---------------------------------------------------------
1 | 0:00.00 | 4:24.14 | 0 | 19813
2 | 4:24.14 | 3:58.26 | 19814 | 37689
3 | 8:22.40 | 3:13.26 | 37690 | 52190
4 | 11:35.66 | 4:13.11 | 52191 | 71176
5 | 15:49.02 | 4:27.57 | 71177 | 91258
6 | 20:16.59 | 3:04.28 | 91259 | 105086
7 | 23:21.12 | 2:55.65 | 105087 | 118276
8 | 26:17.02 | 4:33.61 | 118277 | 138812
9 | 30:50.63 | 3:10.41 | 138813 | 153103
10 | 34:01.29 | 4:40.12 | 153104 | 174115
11 | 38:41.41 | 4:38.63 | 174116 | 195028
12 | 43:20.29 | 3:08.70 | 195029 | 209198
13 | 49:01.24 | 12:19.66 | 220599 | 276089

Range status and errors

Selected range

Filename K:\loseless\Premier - Tuzin.wav

Peak level 100.0 %
Range quality 100.0 %
Copy CRC 0969941F
Copy OK

No errors occurred

End of status report
01. Ляпіс Трубяцкой – Зорачкі
02. Жнюв – Не хвалюйся
03. Голая манашка – Атрута
04. Neuro Dubel – Трываю
05. J:морс – Не здавайся
06. Esprit – Знайдзі мяне
07. ДзеціДзяцей – Гімн моладзі
08. Вольскі/Пугач – Такога няма нідзе
09. Rahis – FM
10. Наста Някрасава – Влікі дзень
11. IQ48 – Вясна-красна
12. Mauzer – Каляда
Exact Audio Copy V0.99 prebeta 4 from 23. January 2008

EAC extraction logfile from 7. March 2009, 18:17

Premier / Tuzin

Used drive : _NEC DVD_RW ND-4570A Adapter: 0 ID: 0

Read mode : Secure
Utilize accurate stream : Yes
Defeat audio cache : Yes
Make use of C2 pointers : No

Read offset correction : 48
Overread into Lead-In and Lead-Out : No
Fill up missing offset samples with silence : Yes
Delete leading and trailing silent blocks : No
Null samples used in CRC calculations : Yes
Used interface : Native Win32 interface for Win NT & 2000

Used output format : Internal WAV Routines
Sample format : 44.100 Hz; 16 Bit; Stereo

TOC of the extracted CD

Track | Start | Length | Start sector | End sector
---------------------------------------------------------
1 | 0:00.00 | 4:24.14 | 0 | 19813
2 | 4:24.14 | 3:58.26 | 19814 | 37689
3 | 8:22.40 | 3:13.26 | 37690 | 52190
4 | 11:35.66 | 4:13.11 | 52191 | 71176
5 | 15:49.02 | 4:27.57 | 71177 | 91258
6 | 20:16.59 | 3:04.28 | 91259 | 105086
7 | 23:21.12 | 2:55.65 | 105087 | 118276
8 | 26:17.02 | 4:33.61 | 118277 | 138812
9 | 30:50.63 | 3:10.41 | 138813 | 153103
10 | 34:01.29 | 4:40.12 | 153104 | 174115
11 | 38:41.41 | 4:38.63 | 174116 | 195028
12 | 43:20.29 | 3:08.70 | 195029 | 209198
13 | 49:01.24 | 12:19.66 | 220599 | 276089

Range status and errors

Selected range

Filename K:\loseless\Premier - Tuzin.wav

Peak level 100.0 %
Range quality 100.0 %
Copy CRC 0969941F
Copy OK

No errors occurred

End of status report
01. Akute - Прамяні pt.2 (Sviaci)
02. Жнюв - Засуха
03. PANaNieba feat. Караліна Хімэнэс - Усё будзе добра
04. Naka feat. Вайцюшкевіч - У баі
05. Miascovyja - Якое завецца...
06. Рокаш - Крылы
07. ZnaROCK - Я эма, мама
08. Neuro Dubel - Ленін
09. Фіолет - Месца пакуты
10. ILO & Friends - Сланечнікі
11. Цукерка - Краіна белая
12. Ляпіс Трубяцкой - Грай
  
Exact Audio Copy V0.99 prebeta 5 from 4. May 2009

Отчёт EAC об извлечении, выполненном 8. октября 2011, 19:49

Various / Шосты Прэм'ер Тузін (2011)

Дисковод: _NEC DVD_RW ND-3550A Adapter: 0 ID: 0

Режим чтения : ДостоверностьИспользование точного потока : ДаОтключение кэша аудио : ДаИспользование указателей C2 : Нет

Коррекция смещения при чтении : 48Способность читать области Lead-in и Lead-out : НетЗаполнение пропущенных сэмплов тишиной : ДаУдаление блоков с тишиной в начале и конце : НетПри вычислениях CRC использовались нулевые сэмплы : ДаИнтерфейс : Установленный внешний ASPI-интерфейс

Выходной формат : Внутренние WAV-операцииФормат сэмплов : 44.100 Гц; 16 бит; стерео

TOC извлечённого CD

Трек | Старт | Длительность | Начальный сектор | Конечный сектор --------------------------------------------------------------------- 1 | 0:00.00 | 4:32.12 | 0 | 20411 2 | 4:32.12 | 4:39.44 | 20412 | 41380 3 | 9:11.56 | 4:09.44 | 41381 | 60099 4 | 13:21.25 | 4:01.57 | 60100 | 78231 5 | 17:23.07 | 3:23.61 | 78232 | 93517 6 | 20:46.68 | 4:06.45 | 93518 | 112012 7 | 24:53.38 | 3:56.18 | 112013 | 129730 8 | 28:49.56 | 3:15.53 | 129731 | 144408 9 | 32:05.34 | 3:36.38 | 144409 | 160646 10 | 35:41.72 | 4:22.26 | 160647 | 180322 11 | 40:04.23 | 4:45.52 | 180323 | 201749 12 | 44:50.00 | 4:09.43 | 201750 | 220467 13 | 51:31.43 | 13:57.61 | 231868 | 294703

Характеристики диапазона извлечения и сообщения об ошибках

Выбранный диапазон

Имя файла F:\Music lossless\Various - Шосты Прэм'ер Тузін (2011).wav

Пиковый уровень 100.0 % Качество диапазона 99.9 % CRC теста 4383A296 CRC копии 4383A296 Копирование... OK

Ошибок не произошло

AccurateRip: сводка

Трек 1 нет в базе данныхТрек 2 нет в базе данныхТрек 3 нет в базе данныхТрек 4 нет в базе данныхТрек 5 нет в базе данныхТрек 6 нет в базе данныхТрек 7 нет в базе данныхТрек 8 нет в базе данныхТрек 9 нет в базе данныхТрек 10 нет в базе данныхТрек 11 нет в базе данныхТрек 12 нет в базе данных

Ни одного трека нет в базе AccurateRip

Конец отчёта
01. Atlantica - У сьвеце не адны
02. Naka - Бяжы
03. Нестандартны варыянт - У неба
04. Серебряная свадьба - Новы мост
05. Сердце дурака - Маці
06. Стокс - Пад купалам нябёс
07. Дакота - Запалкі
08. Hair Peace Salon - Студзень
09. Tanin Jazz - My Babe
10. Сяргей Пукст - Трыюмф волі
11. Da Vinci - Каханьне ня ўзьнікла
12. Юры Дземідовіч - Чароўны кролік
Exact Audio Copy V0.99 prebeta 5 from 4. May 2009

Отчёт EAC об извлечении, выполненном 25. июня 2011, 9:21

Various / Тузін ПЕРАЗАГРУЗКА

Дисковод: _NEC DVD_RW ND-3550A Adapter: 0 ID: 0

Режим чтения : Достоверность
Использование точного потока : Да
Отключение кэша аудио : Да
Использование указателей C2 : Нет

Коррекция смещения при чтении : 48
Способность читать области Lead-in и Lead-out : Нет
Заполнение пропущенных сэмплов тишиной : Да
Удаление блоков с тишиной в начале и конце : Нет
При вычислениях CRC использовались нулевые сэмплы : Да
Интерфейс : Установленный внешний ASPI-интерфейс

Выходной формат : Внутренние WAV-операции
Формат сэмплов : 44.100 Гц; 16 бит; стерео

TOC извлечённого CD

Трек | Старт | Длительность | Начальный сектор | Конечный сектор
---------------------------------------------------------------------
1 | 0:00.00 | 3:39.60 | 0 | 16484
2 | 3:39.60 | 3:24.54 | 16485 | 31838
3 | 7:04.39 | 4:01.33 | 31839 | 49946
4 | 11:05.72 | 4:26.71 | 49947 | 69967
5 | 15:32.68 | 2:36.04 | 69968 | 81671
6 | 18:08.72 | 4:10.17 | 81672 | 100438
7 | 22:19.14 | 3:46.12 | 100439 | 117400
8 | 26:05.26 | 3:31.17 | 117401 | 133242
9 | 29:36.43 | 4:23.20 | 133243 | 152987
10 | 33:59.63 | 1:36.57 | 152988 | 160244
11 | 35:36.45 | 3:20.13 | 160245 | 175257
12 | 38:56.58 | 2:37.58 | 175258 | 187090

Характеристики диапазона извлечения и сообщения об ошибках

Выбранный диапазон

Имя файла F:\Music lossless\Various - Тузін ПЕРАЗАГРУЗКА.wav

Пиковый уровень 100.0 %
Качество диапазона 100.0 %
CRC теста 209994B3
CRC копии 209994B3
Копирование... OK

Ошибок не произошло

AccurateRip: сводка

Трек 1 нет в базе данных
Трек 2 нет в базе данных
Трек 3 нет в базе данных
Трек 4 нет в базе данных
Трек 5 нет в базе данных
Трек 6 нет в базе данных
Трек 7 нет в базе данных
Трек 8 нет в базе данных
Трек 9 нет в базе данных
Трек 10 нет в базе данных
Трек 11 нет в базе данных
Трек 12 нет в базе данных

Ни одного трека нет в базе AccurateRip

Конец отчёта
01. Воплі Відоплясова - Краіна мрой
02. Oleg Jagger - Дзень бяз чар тваіх
03. Мумий Тролль - Кантрабанды
04. Dreamgale - Апошняе сонца
05. ##### - Дождж
06. Макс Лорэнс - Зрывае дах
07. Марыя Тарасевіч - Сонейка
08. Аляксандр Рыбак - Небасхіл Эўропы
09. Смысловые галлюцинации - Апошні дзень Зямлі
10. Leon Gurvitch Project - Акіян у цішы
11. Zdob si Zdub - Стоп-мафія
12. Алена Сьвірыдава - Пакуль
  
Exact Audio Copy V0.99 prebeta 5 from 4. May 2009

Отчёт EAC об извлечении, выполненном 12. января 2012, 14:45

Various / Будзьма! Тузін. ПЕРАЗАГРУЗКА 2

Дисковод: _NEC DVD_RW ND-3550A Adapter: 0 ID: 0

Режим чтения : ДостоверностьИспользование точного потока : ДаОтключение кэша аудио : ДаИспользование указателей C2 : Нет

Коррекция смещения при чтении : 48Способность читать области Lead-in и Lead-out : НетЗаполнение пропущенных сэмплов тишиной : ДаУдаление блоков с тишиной в начале и конце : НетПри вычислениях CRC использовались нулевые сэмплы : ДаИнтерфейс : Установленный внешний ASPI-интерфейс

Выходной формат : Внутренние WAV-операцииФормат сэмплов : 44.100 Гц; 16 бит; стерео

TOC извлечённого CD

Трек | Старт | Длительность | Начальный сектор | Конечный сектор --------------------------------------------------------------------- 1 | 0:00.00 | 4:51.15 | 0 | 21839 2 | 4:51.15 | 3:56.24 | 21840 | 39563 3 | 8:47.39 | 4:00.47 | 39564 | 57610 4 | 12:48.11 | 4:23.13 | 57611 | 77348 5 | 17:11.24 | 4:46.60 | 77349 | 98858 6 | 21:58.09 | 4:01.37 | 98859 | 116970 7 | 25:59.46 | 3:29.63 | 116971 | 132708 8 | 29:29.34 | 3:42.30 | 132709 | 149388 9 | 33:11.64 | 3:30.70 | 149389 | 165208 10 | 36:42.59 | 6:51.56 | 165209 | 196089 11 | 43:34.40 | 2:52.16 | 196090 | 209005 12 | 46:26.56 | 3:22.69 | 209006 | 224224

Характеристики диапазона извлечения и сообщения об ошибках

Выбранный диапазон

Имя файла F:\Music lossless\Various - Будзьма! Тузін. ПЕРАЗАГРУЗКА 2.wav

Пиковый уровень 100.0 % Качество диапазона 99.9 % CRC теста C122BBD6 CRC копии C122BBD6 Копирование... OK

Ошибок не произошло

AccurateRip: сводка

Трек 1 нет в базе данныхТрек 2 нет в базе данныхТрек 3 нет в базе данныхТрек 4 нет в базе данныхТрек 5 нет в базе данныхТрек 6 нет в базе данныхТрек 7 нет в базе данныхТрек 8 нет в базе данныхТрек 9 нет в базе данныхТрек 10 нет в базе данныхТрек 11 нет в базе данныхТрек 12 нет в базе данных

Ни одного трека нет в базе AccurateRip

Конец отчёта

  
Started at: среда, 12. 10. 2011. - 12:36.567 files found

1 -===- F:\Music lossless\Прэм'ер Тузін lossless\Прэм'ер Тузін 2005 lossless\Прэм'ер Тузін 2005.flac Extracted successfully Conclusion: this track is CDDA with probability 100% Tempfile successfully deleted.

2 -===- F:\Music lossless\Прэм'ер Тузін lossless\Прэм'ер Тузін 2006 lossless\Прэм'ер Тузін 2006.flac Extracted successfully Conclusion: this track is CDDA with probability 100% Tempfile successfully deleted.

3 -===- F:\Music lossless\Прэм'ер Тузін lossless\Прэм'ер Тузін 2007 lossless\Various - Прэм'ер Тузін 2007.flac Extracted successfully Conclusion: this track is CDDA with probability 100% Tempfile successfully deleted.

4 -===- F:\Music lossless\Прэм'ер Тузін lossless\Прэм'ер Тузін 2008 lossless\Прэм'ер Тузін 2008.flac Extracted successfully Conclusion: this track is CDDA with probability 99% Tempfile successfully deleted.

5 -===- F:\Music lossless\Прэм'ер Тузін lossless\Прэм'ер Тузін 2009 lossless\Прэм'ер Тузін 2009.flac Extracted successfully Conclusion: this track is CDDA with probability 100% Tempfile successfully deleted.

6 -===- F:\Music lossless\Прэм'ер Тузін lossless\Тузін ПЕРАЗАГРУЗКА\Various - Тузін ПЕРАЗАГРУЗКА.flac Extracted successfully Conclusion: this track is CDDA with probability 100% Tempfile successfully deleted.

7 -===- F:\Music lossless\Прэм'ер Тузін lossless\Шосты Прэм'ер Тузін (2011)\Various - Шосты Прэм'ер Тузін (2011).flac Extracted successfully Conclusion: this track is CDDA with probability 100% Tempfile successfully deleted.

Finished at: среда, 12. 10. 2011. - 13:01.00 (operation time: 0:24.03)
Started at: среда, 29. 02. 2012. - 21:20.251 file found

1 -===- F:\Music lossless\Прэм'ер Тузін lossless\Будзьма! Тузін. ПЕРАЗАГРУЗКА 2\Various - Будзьма! Тузін. ПЕРАЗАГРУЗКА 2.flac Extracted successfully Conclusion: this track is CDDA with probability 100% Tempfile successfully deleted.

Finished at: среда, 29. 02. 2012. - 21:23.46 (operation time: 0:03.21)



Трекер:  [ 06-Май-2012 14:48 ]

  

Скачать .torrent

Размер .torrent файла 32 KB


Размер: 3.18 GB
Хэш (hash) релиза: 7fbd796046122125a9b7b2260469d7c655d5d0e8

Еще никто не оставлял запись к записи скачать торрент VA - Прэмер Тузін 2005 - 2011. Тузін ПЕРАЗАГРУЗКА. Будзьма. Тузін. ПЕРАЗАГРУЗКА 2 . Будь первым!

!Обратная связь