Скачать через торрент Xandria - Дискография - 2003-2012 ALAC, lossless бесплатно русская версия torrent активатор

Если у вас наблюдаются проблемы со скриншотами, переходом по ссылками, скачиванием торрентов - проблемы в блокировщике рекламы AdBlock. #хорошегоДня!


Статистика раздачи
Размер:  2.57 GB   |    Зарегистрирован:  5 лет 5 месяцев   |    .torrent скачан:  100 раз   |   
Раздают:  1  
   
Загрузка...
 
Автор Сообщение

Galfimbul

avatar Galfimbul




Страна: Germany ll Год: 2003-2012 ll Жанр: Symphonic Gothic Metal ll Продолжительность: 6 часов ll Тексты: вшиты ll Обложки: вшиты
Кодек: ALAC ll Программа-риповщик : foobar2000 + iTunes (lossless) ll Битрейт: lossless
О группе: Немецкая музыкальная группа, была основана в 1994 году в Германии, в городе Билефельд гитаристом и вокалистом Марко Хойбаумом. После распада в 1997 году, коллектив в новом составе продолжил свое существование лишь с 2000 года. Музыка этой группы комбинирует элементы симфонического рока и симфонического метала с легкими электронными элементами, поэтому точная классификация затруднительна. После нескольких демо и большого успеха на различных MP3 порталах, в 2003 году они выпустили первый альбом, который достиг 98-го места в немецких музыкальных чартах. Последовавший за ним альбом "Ravenheart" продержался в чартах 7 недель. В 2005 они выпустили свой третий альбом "India", звучание которого ориентировано в сторону симфонического метала.
01. Kill The Sun
02. Mermaids
03. Ginger
04. She's Nirvana
05. Forever Yours
06. Casablanca
07. So You Disappear
08. Wisdom
09. Isis,Osiris
10. Calyx Virago
  
EAC extraction logfile from 21. October 2003, 23:42 for CDXandria / Kill the Sun

Used drive : PLEXTOR CD-ROM PX-40TS Adapter: 4 ID: 2Read mode : Secure with C2, accurate stream, NO disable cacheRead offset correction : 0Overread into Lead-In and Lead-Out : No

Used output format : Monkey's Audio Lossless Encoder v3.97 DLLHigh Lossless Compression

Other options :Fill up missing offset samples with silence : YesDelete leading and trailing silent blocks : NoInstalled external ASPI interface

Range status and errorsSelected rangeFilename Z:\MAD\Xandria - Kill the sun.ape

Peak level 100.0 %Range quality 100.0 %CRC 99478AA1Copy OK

No errors occured

End of status report
01. Ravenheart
02. The Lioness
03. Back To The River
04. Eversleeping
05. Fire Of Universe
06. Some Like It Cold
07. Answer
08. My Scarlet Name
09. Snow-White
10. Black Flame
11. Too Close To Breathe
12. Keep My Secret Well
  
EAC extraction logfile from 14. July 2007, 11:18 for CDXandria / Ravenheart

Used drive : _NEC DVD_RW ND-3550A Adapter: 1 ID: 0Read mode : Secure with NO C2, accurate stream, disable cacheRead offset correction : 48Overread into Lead-In and Lead-Out : No

Used output format : Internal WAV Routines44.100 Hz; 16 Bit; Stereo

Other options :Fill up missing offset samples with silence : YesDelete leading and trailing silent blocks : NoInstalled external ASPI interface

Range status and errorsSelected rangeFilename G:\Xandria - Ravenheart.wav

Peak level 97.8 %Range quality 100.0 %CRC 43FE8309Copy OK

No errors occured

End of status report
01. Eversleeping (Single Version)
02. Drown In Me
03. Pure
04. So Sweet
05. Eversleeping (Album Version)
  
Exact Audio Copy V0.99 prebeta 4 from 23. January 2008

EAC extraction logfile from 8. November 2008, 21:39

Xandria / Eversleeping

Used drive : TSSTcorpCDDVDW SH-S223F Adapter: 0 ID: 0

Read mode : SecureUtilize accurate stream : YesDefeat audio cache : YesMake use of C2 pointers : No

Read offset correction : 6Overread into Lead-In and Lead-Out : NoFill up missing offset samples with silence : YesDelete leading and trailing silent blocks : NoNull samples used in CRC calculations : YesUsed interface : Installed external ASPI interface

Used output format : User Defined EncoderSelected bitrate : 128 kBit/sQuality : HighAdd ID3 tag : NoCommand line compressor : C:\Program\Exact Audio Copy\WavPack\wavpack.exeAdditional command line options : -w "Artist=%a" -w "Title=%t" -w "Album=%g" -w "Year=%y" -w "Track=%n" -w "Genre=%m" -h -m %s %d

TOC of the extracted CD

Track | Start | Length | Start sector | End sector---------------------------------------------------------1 | 0:00.00 | 3:57.11 | 0 | 177852 | 3:57.11 | 3:13.21 | 17786 | 322813 | 7:10.32 | 3:07.21 | 32282 | 463274 | 10:17.53 | 4:46.06 | 46328 | 677835 | 15:03.59 | 3:39.32 | 67784 | 842406 | 21:15.16 | 14:42.16 | 95641 | 161806

Range status and errors

Selected range

Filename E:\Xandria - Eversleeping.wav

Peak level 100.0 %Range quality 100.0 %Copy CRC 64669733Copy OK

No errors occurred

AccurateRip summary

Track 1 accurately ripped (confidence 27) [AA2726FA]Track 2 accurately ripped (confidence 27) [94ED4B3D]Track 3 accurately ripped (confidence 27) [0EE2C956]Track 4 accurately ripped (confidence 27) [49833738]Track 5 accurately ripped (confidence 27) [1FAF2BAB]

All tracks accurately ripped

End of status report
01. India
02. Now & Forever
03. In Love With The Darkness
04. Fight Me
05. Black And Silver
06. Like A Rose On The Grave Of Love
07. Widescreen
08. The End Of Every Story
09. Who We Are (And Who We Want To Be)
10. Dancer
11. Winterhearted
12. Return To India
  
EAC extraction logfile from 7. April 2006, 16:15 for CDXandria / India

Used drive : PLEXTOR CD-ROM PX-40TS Adapter: 2 ID: 4Read mode : Secure with NO C2, accurate stream, disable cacheRead offset correction : 676Overread into Lead-In and Lead-Out : No

Used output format : C:\Program Files\EAC\flac.exe (User Defined Encoder)128 kBit/sAdditional command line options : -5 -V -T "ARTIST=%a" -T "TITLE=%t" -T "ALBUM=%g" -T "DATE=%y" -T"TRACKNUMBER=%n" -T "GENRE=%m" -T "COMMENT=EAC Flac 1.1.1 -8" %s

Other options :Fill up missing offset samples with silence : YesDelete leading and trailing silent blocks : NoInstalled external ASPI interface

Track 1Filename D:\WAVE\01 - India.wav

Pre-gap length 0:00:02.00

Peak level 100.0 %Track quality 100.0 %Test CRC 6CAC3AFCCopy CRC 6CAC3AFCCopy OK

Track 2Filename D:\WAVE\02 - Now & Forever.wav

Peak level 98.8 %Track quality 100.0 %Test CRC A75BAA3BCopy CRC A75BAA3BCopy OK

Track 3Filename D:\WAVE\03 - In Love With The Darkness.wav

Pre-gap length 0:00:02.00

Peak level 98.8 %Track quality 100.0 %Test CRC FF69FBE8Copy CRC FF69FBE8Copy OK

Track 4Filename D:\WAVE\04 - Fight Me.wav

Pre-gap length 0:00:01.00

Peak level 98.8 %Track quality 100.0 %Test CRC 702B981ACopy CRC 702B981ACopy OK

Track 5Filename D:\WAVE\05 - Black And Silver.wav

Pre-gap length 0:00:02.00

Peak level 98.8 %Track quality 100.0 %Test CRC 1E4AB11FCopy CRC 1E4AB11FCopy OK

Track 6Filename D:\WAVE\06 - Like A Rose On The Grave Of Love.wav

Pre-gap length 0:00:01.00

Peak level 98.8 %Track quality 100.0 %Test CRC E17E28ACCopy CRC E17E28ACCopy OK

Track 7Filename D:\WAVE\07 - Widescreen.wav

Pre-gap length 0:00:02.00

Peak level 98.8 %Track quality 100.0 %Test CRC 1005DCCDCopy CRC 1005DCCDCopy OK

Track 8Filename D:\WAVE\08 - The End Of Every Story.wav

Peak level 98.8 %Track quality 100.0 %Test CRC 9EA8B907Copy CRC 9EA8B907Copy OK

Track 9Filename D:\WAVE\09 - Who We Are (And Who We Want To Be).wav

Peak level 98.8 %Track quality 100.0 %Test CRC E339D885Copy CRC E339D885Copy OK

Track 10Filename D:\WAVE\10 - Dancer.wav

Pre-gap length 0:00:01.50

Peak level 98.8 %Track quality 100.0 %Test CRC 55958DE5Copy CRC 55958DE5Copy OK

Track 11Filename D:\WAVE\11 - Winterhearted.wav

Pre-gap length 0:00:02.00

Peak level 98.8 %Track quality 100.0 %Test CRC 7CA5ADA7Copy CRC 7CA5ADA7Copy OK

Track 12Filename D:\WAVE\12 - Return To India.wav

Pre-gap length 0:00:02.00

Peak level 98.8 %Track quality 100.0 %Test CRC 4249DE71Copy CRC 4249DE71Copy OK

No errors occured

End of status report
01. Save My Life
02. Vampire
03. Beware
04. Emotional Man
05. Salome
06. Only For The Stars In Your Eyes
07. Firestorm
08. A New Age
09. The Wind And The Ocean
10. Sisters Of The Light
11. Sleeping Dogs Lie
12. On My Way
13. Sisters Of The Light (remixed by Jesus On Extasy)
  
Отчёт EAC об извлечении, выполненном 11. ноября 2007, 21:53 для диска:Xandria / Salome The Seventh Veil

Дисковод: PLEXTOR DVDR PX-760A Adapter: 0 ID: 0Режим чтения: Достоверный (C2: нет, Точный поток: да, Отключение кэша: да)Коррекция смещения при чтении: 30Способность читать области Lead-in и Lead-out : Нет

Выходной формат: C:\Program Files\Monkey's Audio\MAC.exe (Monkey's Audio (без потерь))High Lossless Compression

Другие параметры:Заполнение пропущенных сэмплов тишиной : ДаУдаление блоков с тишиной в начале и конце : НетУстановленный внешний ASPI-интерфейс

Характеристики диапазона извлечения и сообщения об ошибкахВыбранный диапазонИмя файла D:\MUSIC\Xandria - Salome The Seventh Veil.wav

Пиковый уровень 99.6 %Качество диапазона 99.9 %CRC 2CD8CA9CКопирование... OK

Ошибок не произошло

Конец отчёта
01. Now & Forever
02. Ravenheart
03. Kill The Sun
04. In Love With The Darkness
05. Eversleeping
06. Only For The Stars In Your Eyes
07. The End Of Every Story
08. The Lioness
09. India
10. Save My Life
11. Ginger
12. Firestorm
13. Some Like It Cold
14. Black Flame
15. Like A Rose On The Grave Of Love
16. Sisters Of The Light
17. Mermaids (Child Of The Blue)
18. Drown In Me
19. One Word
20. Lullaby
  
Отчёт EAC об извлечении, выполненном 31. августа 2008, 19:21 для диска:Xandria / Now & Forever (Best Of Xandria)

Дисковод: ASUS DRW-1814BLT Adapter: 1 ID: 0Режим чтения: Достоверный (C2: нет, Точный поток: да, Отключение кэша: да)Коррекция смещения при чтении: 30Способность читать области Lead-in и Lead-out : Нет

Выходной формат: C:\Program Files\Monkey's Audio\MAC.exe (Monkey's Audio (без потерь))High Lossless Compression

Другие параметры:Заполнение пропущенных сэмплов тишиной : ДаУдаление блоков с тишиной в начале и конце : НетУстановленный внешний ASPI-интерфейс

Характеристики диапазона извлечения и сообщения об ошибкахВыбранный диапазонИмя файла D:\MUSIC\Xandria - Now & Forever (Best Of Xandria).wav

Пиковый уровень 99.0 %Качество диапазона 100.0 %CRC 876D2BCAКопирование... OK

Ошибок не произошло

Конец отчёта
01. A Prophecy Of Worlds To Fall
02. Valentine
03. Forevermore
05. Euphoria
04. Blood On My Hands
06. Soulcrusher
07. The Dream Is Still Alive
08. The Lost Elysion
09. Call Of The Wind
10. A Thousand Letters
11. Cursed
12. The Nomad´s Crown
13. When The Mirror Cracks
  
Exact Audio Copy V0.99 prebeta 5 from 4. May 2009

EAC extraction logfile from 25. February 2012, 11:57

Xandria / Neverworld's End

Used drive : ATAPI iHAS624 B Adapter: 2 ID: 0

Read mode : SecureUtilize accurate stream : YesDefeat audio cache : YesMake use of C2 pointers : No

Read offset correction : 6Overread into Lead-In and Lead-Out : NoFill up missing offset samples with silence : YesDelete leading and trailing silent blocks : NoNull samples used in CRC calculations : YesUsed interface : Installed external ASPI interface

Used output format : User Defined EncoderSelected bitrate : 40 kBit/sQuality : HighAdd ID3 tag : NoCommand line compressor : C:\Program Files\Exact Audio Copy\Flac\flac.exeAdditional command line options : -6 -V %s

TOC of the extracted CD

Track | Start | Length | Start sector | End sector --------------------------------------------------------- 1 | 0:00.00 | 7:23.42 | 0 | 33266 2 | 7:23.42 | 4:11.49 | 33267 | 52140 3 | 11:35.16 | 4:59.07 | 52141 | 74572 4 | 16:34.23 | 4:30.19 | 74573 | 94841 5 | 21:04.42 | 4:17.17 | 94842 | 114133 6 | 25:21.59 | 6:11.40 | 114134 | 141998 7 | 31:33.24 | 4:23.43 | 141999 | 161766 8 | 35:56.67 | 5:26.39 | 161767 | 186255 9 | 41:23.31 | 4:52.22 | 186256 | 208177 10 | 46:15.53 | 4:18.48 | 208178 | 227575 11 | 50:34.26 | 4:10.52 | 227576 | 246377 12 | 54:45.03 | 9:02.17 | 246378 | 287044 13 | 63:47.20 | 4:08.55 | 287045 | 305699

Range status and errors

Selected range

Filename D:\Download\Xandria - Neverworld's End.wav

Peak level 99.1 % Range quality 100.0 % Copy CRC F747221B Copy OK

No errors occurred

AccurateRip summary

Track 1 not present in databaseTrack 2 not present in databaseTrack 3 not present in databaseTrack 4 not present in databaseTrack 5 not present in databaseTrack 6 not present in databaseTrack 7 not present in databaseTrack 8 not present in databaseTrack 9 not present in databaseTrack 10 not present in databaseTrack 11 not present in databaseTrack 12 not present in databaseTrack 13 not present in database

None of the tracks are present in the AccurateRip database

End of status report


Трекер:  [ 06-Май-2012 14:50 ]

  

Скачать .torrent

Размер .torrent файла 19 KB


Размер: 2.57 GB
Хэш (hash) релиза: 7d308f6c9b80b108df37ebd14f73a383910cd056

Еще никто не оставлял запись к записи скачать торрент Xandria - Дискография - 2003-2012 ALAC, lossless . Будь первым!

!Обратная связь