Скачать через торрент Collide - Дискография - 1996-2011 ALAC, lossless бесплатно русская версия torrent активатор

Если у вас наблюдаются проблемы со скриншотами, переходом по ссылками, скачиванием торрентов - проблемы в блокировщике рекламы AdBlock. #хорошегоДня!


Статистика раздачи
Размер:  2.59 GB   |    Зарегистрирован:  5 лет 5 месяцев   |    .torrent скачан:  38 раз   |   
Раздают:  1  
   
Загрузка...
 
Автор Сообщение

Galfimbul

avatar Galfimbul




Страна: USA ll Год: 1996-2011 ll Жанр: Gothic, Darkwave, Industrial ll Продолжительность: 6,4 часа ll Тексты: вшиты 90% ll Обложки: вшиты
Кодек: ALAC ll Программа-риповщик : foobar2000 + iTunes (lossless) ll Битрейт: lossless
О группе: Музыкальный дуэт был основанный в 1992 году в Лос-Анджелесе, штат Калифорния, США. Collide - это электронно–готическая команда с женским вокалом (место у микрофона занимает очень привлекательное создание по имени Karin). Хороший ритм, своеобразный драйв, мелодичность и целый букет эмоций - все это присутствует в музыке дуэта. Название группы происходит от слова ''collision'' of musical style ("столкновение" музыкальных стилей).
01. Violet's Dance
02. Beneath The Skin
03. Falling Up
04. Deep
05. Black
06. Strange
07. Dreams And Illusions
08. Have Faith
09. Pandora's Box
10. 95 & 7
11. Deep (Christ Analogue Remix)
12. Beneath The Skin (Subconscious Remix By Cevin Key)
  
Exact Audio Copy V0.99 prebeta 4 from 23. January 2008

EAC extraction logfile from 27. November 2009, 17:38

Collide / Beneath The Skin

Used drive : HL-DT-STDVD-RAM GSA-H55N Adapter: 4 ID: 0

Read mode : SecureUtilize accurate stream : YesDefeat audio cache : YesMake use of C2 pointers : No

Read offset correction : 102Overread into Lead-In and Lead-Out : NoFill up missing offset samples with silence : YesDelete leading and trailing silent blocks : NoNull samples used in CRC calculations : YesUsed interface : Installed external ASPI interface

Used output format : User Defined EncoderSelected bitrate : 1024 kBit/sQuality : HighAdd ID3 tag : NoCommand line compressor : C:\Program Files\Exact Audio Copy\FLAC\FLAC.EXEAdditional command line options : -6 -V -T "ARTIST=%a" -T "TITLE=%t" -T "ALBUM=%g" -T "DATE=%y" -T "TRACKNUMBER=%n" -T "GENRE=%m" -T "COMMENT=%e" %s -o %d

TOC of the extracted CD

Track | Start | Length | Start sector | End sector --------------------------------------------------------- 1 | 0:00.00 | 3:17.20 | 0 | 14794 2 | 3:17.20 | 6:18.00 | 14795 | 43144 3 | 9:35.20 | 5:03.65 | 43145 | 65934 4 | 14:39.10 | 3:17.10 | 65935 | 80719 5 | 17:56.20 | 4:12.38 | 80720 | 99657 6 | 22:08.58 | 5:18.00 | 99658 | 123507 7 | 27:26.58 | 6:13.00 | 123508 | 151482 8 | 33:39.58 | 4:58.02 | 151483 | 173834 9 | 38:37.60 | 7:57.60 | 173835 | 209669 10 | 46:35.45 | 2:20.53 | 209670 | 220222 11 | 48:56.23 | 3:45.32 | 220223 | 237129 12 | 52:41.55 | 7:16.10 | 237130 | 269839

Range status and errors

Selected range

Filename D:\Collide - Beneath The Skin.wav

Peak level 100.0 % Range quality 100.0 % Copy CRC 334127CA Copy OK

No errors occurred

End of status report
01. Transfer
02. Wings Of Steel
03. Razor Sharp
04. Dreamsleep
05. White Rabbit
06. Frozen
07. Halo
08. Monochrome
09. Ocean
10. Like You Want To Believe
  
Exact Audio Copy V0.99 prebeta 4 from 23. January 2008

Отчёт EAC об извлечении, выполненном 28. ноября 2009, 10:45

Collide / Chasing The Ghost

Дисковод: Optiarc DVD RW AD-7173A Adapter: 0 ID: 0

Режим чтения : ДостоверностьИспользование точного потока : ДаОтключение кэша аудио : ДаИспользование указателей C2 : Нет

Коррекция смещения при чтении : 48Способность читать области Lead-in и Lead-out : НетЗаполнение пропущенных сэмплов тишиной : ДаУдаление блоков с тишиной в начале и конце : НетПри вычислениях CRC использовались нулевые сэмплы : ДаИнтерфейс : Установленный внешний ASPI-интерфейс

Выходной формат : Пользовательский кодировщикВыбранный битрейт : 1024 kBit/sКачество : ВысокийДобавление ID3-тэга : НетУтилита сжатия : C:\Program Files\Exact Audio Copy\Flac\flac.exeДополнительные параметры : -6 -V -T "ARTIST=%a" -T "TITLE=%t" -T "ALBUM=%g" -T "DATE=%y" -T "TRACKNUMBER=%n" -T "GENRE=%m" -T "COMMENT=%e" %s -o %d

TOC извлечённого CD

Трек | Старт | Длительность | Начальный сектор | Конечный сектор --------------------------------------------------------------------- 1 | 0:00.00 | 3:58.13 | 0 | 17862 2 | 3:58.13 | 5:36.09 | 17863 | 43071 3 | 9:34.22 | 4:52.25 | 43072 | 64996 4 | 14:26.47 | 5:22.43 | 64997 | 89189 5 | 19:49.15 | 3:41.16 | 89190 | 105780 6 | 23:30.31 | 5:01.27 | 105781 | 128382 7 | 28:31.58 | 6:18.19 | 128383 | 156751 8 | 34:50.02 | 4:56.20 | 156752 | 178971 9 | 39:46.22 | 5:24.57 | 178972 | 203328 10 | 45:11.04 | 3:39.02 | 203329 | 219755

Характеристики диапазона извлечения и сообщения об ошибках

Выбранный диапазон

Имя файла D:\Музыка\Heavy\Collide 2000-Chasing The Ghost (industrial gothic) [flac]\Collide - Chasing The Ghost.wav

Пиковый уровень 98.8 % Качество диапазона 100.0 % CRC теста 90F63A68 CRC копии 90F63A68 Копирование... OK

Ошибок не произошло

AccurateRip: сводка

Трек 1 точное извлечение (доверие 15) [3804E2CF]Трек 2 точное извлечение (доверие 14) [C6DB9123]Трек 3 точное извлечение (доверие 14) [9E7D715F]Трек 4 точное извлечение (доверие 14) [C9D7DEF8]Трек 5 точное извлечение (доверие 15) [1E8BACF0]Трек 6 точное извлечение (доверие 15) [DCEE1230]Трек 7 точное извлечение (доверие 15) [759EA4AF]Трек 8 точное извлечение (доверие 15) [AB43E808]Трек 9 точное извлечение (доверие 15) [A8DE9D91]Трек 10 точное извлечение (доверие 15) [5562FF79]

Все треки извлечены точно

Конец отчёта
01. Crushed
02. Euphoria
03. Modify
04. Somewhere
05. Slither Thing
06. Inside
07. Mutation
08. Tempted
09. Shimmer
10. Complicated
11. So Long
  
Exact Audio Copy V0.99 prebeta 4 from 23. January 2008

Отчёт EAC об извлечении, выполненном 28. ноября 2009, 9:10

Collide / Some Kind Of Strange

Дисковод: Optiarc DVD RW AD-7173A Adapter: 0 ID: 0

Режим чтения : ДостоверностьИспользование точного потока : ДаОтключение кэша аудио : ДаИспользование указателей C2 : Нет

Коррекция смещения при чтении : 48Способность читать области Lead-in и Lead-out : НетЗаполнение пропущенных сэмплов тишиной : ДаУдаление блоков с тишиной в начале и конце : НетПри вычислениях CRC использовались нулевые сэмплы : ДаИнтерфейс : Установленный внешний ASPI-интерфейс

Выходной формат : Пользовательский кодировщикВыбранный битрейт : 1024 kBit/sКачество : ВысокийДобавление ID3-тэга : НетУтилита сжатия : C:\Program Files\Exact Audio Copy\Flac\flac.exeДополнительные параметры : -6 -V -T "ARTIST=%a" -T "TITLE=%t" -T "ALBUM=%g" -T "DATE=%y" -T "TRACKNUMBER=%n" -T "GENRE=%m" -T "COMMENT=%e" %s -o %d

TOC извлечённого CD

Трек | Старт | Длительность | Начальный сектор | Конечный сектор --------------------------------------------------------------------- 1 | 0:00.00 | 5:19.66 | 0 | 23990 2 | 5:19.66 | 5:27.13 | 23991 | 48528 3 | 10:47.04 | 5:56.01 | 48529 | 75229 4 | 16:43.05 | 6:16.60 | 75230 | 103489 5 | 22:59.65 | 4:00.06 | 103490 | 121495 6 | 26:59.71 | 4:09.49 | 121496 | 140219 7 | 31:09.45 | 4:30.22 | 140220 | 160491 8 | 35:39.67 | 6:43.69 | 160492 | 190785 9 | 42:23.61 | 5:24.36 | 190786 | 215121 10 | 47:48.22 | 4:36.35 | 215122 | 235856 11 | 52:24.57 | 4:05.47 | 235857 | 254278

Характеристики диапазона извлечения и сообщения об ошибках

Выбранный диапазон

Имя файла D:\Музыка\Heavy\Collide - 2003 - Some Kind Of Strange\Collide - Some Kind Of Strange.wav

Пиковый уровень 99.9 % Качество диапазона 99.9 % CRC теста 92102EEA CRC копии 92102EEA Копирование... OK

Ошибок не произошло

AccurateRip: сводка

Трек 1 точное извлечение (доверие 15) [65F346AC]Трек 2 точное извлечение (доверие 15) [25CDB8B0]Трек 3 точное извлечение (доверие 15) [AA103119]Трек 4 точное извлечение (доверие 15) [F9A57217]Трек 5 точное извлечение (доверие 15) [AD00B8C9]Трек 6 точное извлечение (доверие 15) [8CBA4D81]Трек 7 точное извлечение (доверие 15) [0DA7D696]Трек 8 точное извлечение (доверие 13) [031CAD13]Трек 9 точное извлечение (доверие 15) [A57DF02F]Трек 10 точное извлечение (доверие 15) [776E9D45]Трек 11 точное извлечение (доверие 15) [28AC9BB1]

Все треки извлечены точно

Конец отчёта
01. Intro
02. Beneath The Skin
03. Crushed
04. Complicated
05. Falling Up
06. Dreamsleep
07. Slither Thing
08. Modify
09. Razor Sharp
10. White Rabbit
11. Wings Of Steel
12. Like You Want To Believe
13. Somewhere
14. The Lunatics Have Taken Over The Asylum
15. Euphoria
16. Euphoria (Video Edit)
  
Exact Audio Copy V0.99 prebeta 4 from 23. January 2008

EAC extraction logfile from 7. May 2009, 5:09

Collide / Live At The El Rey

Used drive : JLMS DVD-ROM LTD-166S Adapter: 0 ID: 1

Read mode : SecureUtilize accurate stream : YesDefeat audio cache : YesMake use of C2 pointers : No

Read offset correction : 12Overread into Lead-In and Lead-Out : NoFill up missing offset samples with silence : YesDelete leading and trailing silent blocks : NoNull samples used in CRC calculations : YesUsed interface : Native Win32 interface for Win NT & 2000Gap handling : Appended to previous track

Used output format : User Defined EncoderSelected bitrate : 192 kBit/sQuality : HighAdd ID3 tag : NoCommand line compressor : C:\Program Files\Exact Audio Copy\Flac\flac.exeAdditional command line options : -V -8 -T "artist=%a" -T "title=%t" -T "album=%g" -T "date=%y" -T "tracknumber=%n" -T "genre=%m" %s

TOC of the extracted CD

Track | Start | Length | Start sector | End sector --------------------------------------------------------- 1 | 0:00.00 | 2:05.15 | 0 | 9389 2 | 2:05.15 | 4:50.25 | 9390 | 31164 3 | 6:55.40 | 5:06.35 | 31165 | 54149 4 | 12:02.00 | 4:19.00 | 54150 | 73574 5 | 16:21.00 | 4:33.00 | 73575 | 94049 6 | 20:54.00 | 4:27.50 | 94050 | 114124 7 | 25:21.50 | 3:39.00 | 114125 | 130549 8 | 29:00.50 | 4:09.25 | 130550 | 149249 9 | 33:10.00 | 4:50.00 | 149250 | 170999 10 | 38:00.00 | 3:25.50 | 171000 | 186424 11 | 41:25.50 | 4:48.25 | 186425 | 208049 12 | 46:14.00 | 3:25.00 | 208050 | 223424 13 | 49:39.00 | 5:21.40 | 223425 | 247539 14 | 55:00.40 | 3:35.35 | 247540 | 263699 15 | 58:36.00 | 6:26.00 | 263700 | 292649 16 | 65:02.00 | 4:41.41 | 292650 | 313765

Track 1

Filename G:\Mine\my documents\My Music\EAC rips\flac\Collide - 2005 - Live At The El Rey\Collide - 2005 - Live At The El Rey - 01 - Intro.wav

Pre-gap length 0:00:02.00

Peak level 54.4 % Track quality 99.9 % Test CRC AD874045 Copy CRC AD874045 Track not present in AccurateRip database Copy OK

Track 2

Filename G:\Mine\my documents\My Music\EAC rips\flac\Collide - 2005 - Live At The El Rey\Collide - 2005 - Live At The El Rey - 02 - Beneath The Skin.wav

Peak level 79.9 % Track quality 100.0 % Test CRC C4444E81 Copy CRC C4444E81 Track not present in AccurateRip database Copy OK

Track 3

Filename G:\Mine\my documents\My Music\EAC rips\flac\Collide - 2005 - Live At The El Rey\Collide - 2005 - Live At The El Rey - 03 - Crushed.wav

Peak level 85.7 % Track quality 100.0 % Test CRC 20D57636 Copy CRC 20D57636 Track not present in AccurateRip database Copy OK

Track 4

Filename G:\Mine\my documents\My Music\EAC rips\flac\Collide - 2005 - Live At The El Rey\Collide - 2005 - Live At The El Rey - 04 - Complicated.wav

Peak level 78.6 % Track quality 99.9 % Test CRC 836449E0 Copy CRC 836449E0 Track not present in AccurateRip database Copy OK

Track 5

Filename G:\Mine\my documents\My Music\EAC rips\flac\Collide - 2005 - Live At The El Rey\Collide - 2005 - Live At The El Rey - 05 - Falling Up.wav

Peak level 76.0 % Track quality 100.0 % Test CRC 49A40D88 Copy CRC 49A40D88 Track not present in AccurateRip database Copy OK

Track 6

Filename G:\Mine\my documents\My Music\EAC rips\flac\Collide - 2005 - Live At The El Rey\Collide - 2005 - Live At The El Rey - 06 - Dreamsleep.wav

Peak level 85.8 % Track quality 100.0 % Test CRC 8AE74B70 Copy CRC 8AE74B70 Track not present in AccurateRip database Copy OK

Track 7

Filename G:\Mine\my documents\My Music\EAC rips\flac\Collide - 2005 - Live At The El Rey\Collide - 2005 - Live At The El Rey - 07 - Slither Thing.wav

Peak level 92.5 % Track quality 100.0 % Test CRC 712CBA1D Copy CRC 712CBA1D Track not present in AccurateRip database Copy OK

Track 8

Filename G:\Mine\my documents\My Music\EAC rips\flac\Collide - 2005 - Live At The El Rey\Collide - 2005 - Live At The El Rey - 08 - Modify.wav

Peak level 83.4 % Track quality 100.0 % Test CRC 1E6DA412 Copy CRC 1E6DA412 Track not present in AccurateRip database Copy OK

Track 9

Filename G:\Mine\my documents\My Music\EAC rips\flac\Collide - 2005 - Live At The El Rey\Collide - 2005 - Live At The El Rey - 09 - Razor Sharp.wav

Peak level 76.8 % Track quality 100.0 % Test CRC 66EA5AF1 Copy CRC 66EA5AF1 Track not present in AccurateRip database Copy OK

Track 10

Filename G:\Mine\my documents\My Music\EAC rips\flac\Collide - 2005 - Live At The El Rey\Collide - 2005 - Live At The El Rey - 10 - White Rabbit.wav

Peak level 78.7 % Track quality 100.0 % Test CRC AE79D85F Copy CRC AE79D85F Track not present in AccurateRip database Copy OK

Track 11

Filename G:\Mine\my documents\My Music\EAC rips\flac\Collide - 2005 - Live At The El Rey\Collide - 2005 - Live At The El Rey - 11 - Wings of Steel.wav

Peak level 81.3 % Track quality 100.0 % Test CRC 9E8EC038 Copy CRC 9E8EC038 Track not present in AccurateRip database Copy OK

Track 12

Filename G:\Mine\my documents\My Music\EAC rips\flac\Collide - 2005 - Live At The El Rey\Collide - 2005 - Live At The El Rey - 12 - Like You Want To Believe.wav

Peak level 82.1 % Track quality 100.0 % Test CRC B9757F9F Copy CRC B9757F9F Track not present in AccurateRip database Copy OK

Track 13

Filename G:\Mine\my documents\My Music\EAC rips\flac\Collide - 2005 - Live At The El Rey\Collide - 2005 - Live At The El Rey - 13 - Somewhere.wav

Peak level 87.5 % Track quality 100.0 % Test CRC CB6C7D8F Copy CRC CB6C7D8F Track not present in AccurateRip database Copy OK

Track 14

Filename G:\Mine\my documents\My Music\EAC rips\flac\Collide - 2005 - Live At The El Rey\Collide - 2005 - Live At The El Rey - 14 - The Lunatics Have Taken Over The Asylum.wav

Peak level 84.7 % Track quality 100.0 % Test CRC 943B71A2 Copy CRC 943B71A2 Track not present in AccurateRip database Copy OK

Track 15

Filename G:\Mine\my documents\My Music\EAC rips\flac\Collide - 2005 - Live At The El Rey\Collide - 2005 - Live At The El Rey - 15 - Euphoria.wav

Peak level 92.4 % Track quality 100.0 % Test CRC C00E7399 Copy CRC C00E7399 Track not present in AccurateRip database Copy OK

Track 16

Filename G:\Mine\my documents\My Music\EAC rips\flac\Collide - 2005 - Live At The El Rey\Collide - 2005 - Live At The El Rey - 16 - Euphoria-video edit.wav

Pre-gap length 0:00:02.00

Peak level 100.0 % Track quality 100.0 % Test CRC D9524103 Copy CRC D9524103 Track not present in AccurateRip database Copy OK

None of the tracks are present in the AccurateRip database

No errors occurred

End of status report
  
ват.сд
01. Tongue Tied & Twisted
02. Chaotic
03. A Little Too Much
04. Pure Bliss
05. Spaces In Between
06. Silently Creeping
07. Head Spin
08. Two Headed Monster
09. Shifting
10. Utopia
  
Exact Audio Copy V0.99 prebeta 4 from 23. January 2008

Отчёт EAC об извлечении, выполненном 28. ноября 2009, 11:47

Collide / Two Headed Monster

Дисковод: Optiarc DVD RW AD-7173A Adapter: 0 ID: 0

Режим чтения : ДостоверностьИспользование точного потока : ДаОтключение кэша аудио : ДаИспользование указателей C2 : Нет

Коррекция смещения при чтении : 48Способность читать области Lead-in и Lead-out : НетЗаполнение пропущенных сэмплов тишиной : ДаУдаление блоков с тишиной в начале и конце : НетПри вычислениях CRC использовались нулевые сэмплы : ДаИнтерфейс : Установленный внешний ASPI-интерфейс

Выходной формат : Пользовательский кодировщикВыбранный битрейт : 1024 kBit/sКачество : ВысокийДобавление ID3-тэга : НетУтилита сжатия : C:\Program Files\Exact Audio Copy\Flac\flac.exeДополнительные параметры : -6 -V -T "ARTIST=%a" -T "TITLE=%t" -T "ALBUM=%g" -T "DATE=%y" -T "TRACKNUMBER=%n" -T "GENRE=%m" -T "COMMENT=%e" %s -o %d

TOC извлечённого CD

Трек | Старт | Длительность | Начальный сектор | Конечный сектор --------------------------------------------------------------------- 1 | 0:00.00 | 5:11.72 | 0 | 23396 2 | 5:11.72 | 4:49.24 | 23397 | 45095 3 | 10:01.21 | 4:47.62 | 45096 | 66682 4 | 14:49.08 | 5:50.36 | 66683 | 92968 5 | 20:39.44 | 4:10.70 | 92969 | 111788 6 | 24:50.39 | 4:57.56 | 111789 | 134119 7 | 29:48.20 | 6:22.08 | 134120 | 162777 8 | 36:10.28 | 3:21.40 | 162778 | 177892 9 | 39:31.68 | 4:55.39 | 177893 | 200056 10 | 44:27.32 | 6:22.43 | 200057 | 228749

Характеристики диапазона извлечения и сообщения об ошибках

Выбранный диапазон

Имя файла D:\Музыка\Heavy\Collide 2008-Two Headed Monster (industrial gothic) [flac] (Noiseplus Music, USA)\Collide - Two Headed Monster.wav

Пиковый уровень 98.8 % Качество диапазона 99.9 % CRC теста 23963D02 CRC копии 23963D02 Копирование... OK

Ошибок не произошло

AccurateRip: сводка

Трек 1 точное извлечение (доверие 5) [3E52C14D]Трек 2 точное извлечение (доверие 5) [F1FE2FA0]Трек 3 точное извлечение (доверие 5) [438C2886]Трек 4 точное извлечение (доверие 5) [CE051DF5]Трек 5 точное извлечение (доверие 5) [DD4AA06C]Трек 6 точное извлечение (доверие 5) [4DB6B0B8]Трек 7 точное извлечение (доверие 5) [C184228C]Трек 8 точное извлечение (доверие 5) [32F8B7D4]Трек 9 точное извлечение (доверие 5) [44CE7AC3]Трек 10 точное извлечение (доверие 5) [02935907]

Все треки извлечены точно

Конец отчёта
01. Breathe (Pink Floyd)
02. Nights In White Satin (The Moody Blues)
03. Come Together (The Beatles)
04. Creep (Radiohead)
05. Rock On (David Essex)
06. I Feel You (Depeche Mode)
07. Space Oddity (David Bowie)
08. Baby Did A Bad Bad Thing (Chris Isaak)
09. Tusk (Fleetwood Mac)
10. Comfortably Numb (Pink Floyd)
  
Exact Audio Copy V0.99 prebeta 5 from 4. May 2009

EAC extraction logfile from 3. November 2009, 21:43

Collide / These Eyes Before

Used drive : MATSHITADVD-RAM UJ880AS Adapter: 2 ID: 0

Read mode : SecureUtilize accurate stream : YesDefeat audio cache : YesMake use of C2 pointers : No

Read offset correction : 102Overread into Lead-In and Lead-Out : NoFill up missing offset samples with silence : YesDelete leading and trailing silent blocks : NoNull samples used in CRC calculations : YesUsed interface : Installed external ASPI interfaceGap handling : Appended to previous track

Used output format : User Defined EncoderSelected bitrate : 128 kBit/sQuality : HighAdd ID3 tag : NoCommand line compressor : C:\Program Files (x86)\Exact Audio Copy\Flac\flac.exeAdditional command line options : -V -8 -T "artist=%a" -T "title=%t" -T "album=%g" -T "date=%y" -T "tracknumber=%n" -T "genre=%m" %s

TOC of the extracted CD

Track | Start | Length | Start sector | End sector --------------------------------------------------------- 1 | 0:00.00 | 3:22.24 | 0 | 15173 2 | 3:22.24 | 5:09.31 | 15174 | 38379 3 | 8:31.55 | 4:14.51 | 38380 | 57480 4 | 12:46.31 | 4:17.02 | 57481 | 76757 5 | 17:03.33 | 3:25.24 | 76758 | 92156 6 | 20:28.57 | 5:03.38 | 92157 | 114919 7 | 25:32.20 | 4:36.56 | 114920 | 135675 8 | 30:09.01 | 2:53.10 | 135676 | 148660 9 | 33:02.11 | 3:54.31 | 148661 | 166241 10 | 36:56.42 | 6:29.54 | 166242 | 195470

Track 1

Filename D:\Music\01 - Breathe.wav

Pre-gap length 0:00:02.00

Peak level 98.8 % Track quality 100.0 % Test CRC 910E31AC Copy CRC 910E31AC Track not present in AccurateRip database Copy OK

Track 2

Filename D:\Music\02 - Nights In White Satin.wav

Peak level 98.8 % Track quality 100.0 % Test CRC EDB43E3E Copy CRC EDB43E3E Track not present in AccurateRip database Copy OK

Track 3

Filename D:\Music\03 - Come Together.wav

Peak level 98.8 % Track quality 99.9 % Test CRC 75F407F6 Copy CRC 75F407F6 Track not present in AccurateRip database Copy OK

Track 4

Filename D:\Music\04 - Creep.wav

Pre-gap length 0:00:02.08

Peak level 98.8 % Track quality 99.9 % Test CRC AD8145D8 Copy CRC AD8145D8 Track not present in AccurateRip database Copy OK

Track 5

Filename D:\Music\05 - Rock On.wav

Peak level 98.8 % Track quality 100.0 % Test CRC 3DEF26AB Copy CRC 3DEF26AB Track not present in AccurateRip database Copy OK

Track 6

Filename D:\Music\06 - I Feel You.wav

Pre-gap length 0:00:02.24

Peak level 98.8 % Track quality 99.9 % Test CRC F9942018 Copy CRC F9942018 Track not present in AccurateRip database Copy OK

Track 7

Filename D:\Music\07 - Space Oddity.wav

Pre-gap length 0:00:00.56

Peak level 98.8 % Track quality 100.0 % Test CRC C1356B3B Copy CRC C1356B3B Track not present in AccurateRip database Copy OK

Track 8

Filename D:\Music\08 - Baby Did a Bad Bad Thing.wav

Peak level 98.8 % Track quality 100.0 % Test CRC 52168E1D Copy CRC 52168E1D Track not present in AccurateRip database Copy OK

Track 9

Filename D:\Music\09 - Tusk.wav

Peak level 98.8 % Track quality 99.9 % Test CRC 9D43318B Copy CRC 9D43318B Track not present in AccurateRip database Copy OK

Track 10

Filename D:\Music\10 - Comfortably Numb.wav

Pre-gap length 0:00:02.01

Peak level 98.8 % Track quality 100.0 % Test CRC 88950AEB Copy CRC 88950AEB Track not present in AccurateRip database Copy OK

None of the tracks are present in the AccurateRip database

No errors occurred

End of status report
01. Bending & Floating
02. Lucky 13
03. Mind Games
04. In the Frequency
05. Clearer
06. Counting to Zero
07. Human
08. Tears Like Rain
09. Further From Anything
10. Slow Down
11. Letting go
  
Exact Audio Copy V1.0 beta 3 from 29. August 2011

EAC extraction logfile from 15. January 2012, 2:34

Collide / Counting to Zero

Used drive : TSSTcorpCDDVDW TS-L633C Adapter: 0 ID: 1

Read mode : SecureUtilize accurate stream : YesDefeat audio cache : YesMake use of C2 pointers : No

Read offset correction : 6Overread into Lead-In and Lead-Out : NoFill up missing offset samples with silence : YesDelete leading and trailing silent blocks : NoNull samples used in CRC calculations : YesUsed interface : Native Win32 interface for Win NT & 2000Gap handling : Appended to previous track

Used output format : User Defined EncoderSelected bitrate : 1024 kBit/sQuality : HighAdd ID3 tag : NoCommand line compressor : C:\Program Files (x86)\FLAC\flac.exeAdditional command line options : -8 -V -T "ARTIST=%artist%" -T "TITLE=%title%" -T "ALBUM=%albumtitle%" -T "DATE=%year%" -T "TRACKNUMBER=%tracknr%" -T "GENRE=%genre%" -T "COMMENT=%comment%" -T "BAND=%albuminterpret%" -T "COMPOSER=%composer%" %source%

TOC of the extracted CD

Track | Start | Length | Start sector | End sector --------------------------------------------------------- 1 | 0:00.00 | 4:15.21 | 0 | 19145 2 | 4:15.21 | 5:34.25 | 19146 | 44220 3 | 9:49.46 | 4:58.25 | 44221 | 66595 4 | 14:47.71 | 5:30.33 | 66596 | 91378 5 | 20:18.29 | 5:49.05 | 91379 | 117558 6 | 26:07.34 | 5:48.63 | 117559 | 143721 7 | 31:56.22 | 5:09.48 | 143722 | 166944 8 | 37:05.70 | 3:13.02 | 166945 | 181421 9 | 40:18.72 | 6:35.33 | 181422 | 211079 10 | 46:54.30 | 4:52.11 | 211080 | 232990 11 | 51:46.41 | 5:19.31 | 232991 | 256946

Track 1

Filename D:\EACrips\Collide-Counting_to_Zero\Bending_and_Floating-Collide-Counting_to_Zero-01.wav

Pre-gap length 0:00:02.00

Peak level 98.8 % Extraction speed 24.9 X Track quality 99.9 % Test CRC A3761CB0 Copy CRC A3761CB0 Track not present in AccurateRip database Copy OK

Track 2

Filename D:\EACrips\Collide-Counting_to_Zero\Lucky_13-Collide-Counting_to_Zero-02.wav

Peak level 98.8 % Extraction speed 29.7 X Track quality 99.9 % Test CRC 991125B0 Copy CRC 991125B0 Track not present in AccurateRip database Copy OK

Track 3

Filename D:\EACrips\Collide-Counting_to_Zero\Mind_Games-Collide-Counting_to_Zero-03.wav

Pre-gap length 0:00:01.37

Peak level 98.8 % Extraction speed 36.0 X Track quality 100.0 % Test CRC CEA5715B Copy CRC CEA5715B Track not present in AccurateRip database Copy OK

Track 4

Filename D:\EACrips\Collide-Counting_to_Zero\In_the_Frequency-Collide-Counting_to_Zero-04.wav

Peak level 98.8 % Extraction speed 39.6 X Track quality 100.0 % Test CRC A6789532 Copy CRC A6789532 Track not present in AccurateRip database Copy OK

Track 5

Filename D:\EACrips\Collide-Counting_to_Zero\Clearer-Collide-Counting_to_Zero-05.wav

Pre-gap length 0:00:00.15

Peak level 98.8 % Extraction speed 43.1 X Track quality 100.0 % Test CRC BAE89865 Copy CRC BAE89865 Track not present in AccurateRip database Copy OK

Track 6

Filename D:\EACrips\Collide-Counting_to_Zero\Couting_to_Zero-Collide-Counting_to_Zero-06.wav

Pre-gap length 0:00:00.46

Peak level 98.8 % Extraction speed 46.0 X Track quality 100.0 % Test CRC 235B801B Copy CRC 235B801B Track not present in AccurateRip database Copy OK

Track 7

Filename D:\EACrips\Collide-Counting_to_Zero\Human-Collide-Counting_to_Zero-07.wav

Peak level 79.9 % Extraction speed 48.1 X Track quality 100.0 % Test CRC FC50AEDA Copy CRC FC50AEDA Track not present in AccurateRip database Copy OK

Track 8

Filename D:\EACrips\Collide-Counting_to_Zero\Tears_Like_Rain-Collide-Counting_to_Zero-08.wav

Peak level 98.8 % Extraction speed 46.6 X Track quality 100.0 % Test CRC 528BCA53 Copy CRC 528BCA53 Track not present in AccurateRip database Copy OK

Track 9

Filename D:\EACrips\Collide-Counting_to_Zero\Further_From_Anything-Collide-Counting_to_Zero-09.wav

Peak level 98.8 % Extraction speed 53.2 X Track quality 100.0 % Test CRC 627BFD67 Copy CRC 627BFD67 Track not present in AccurateRip database Copy OK

Track 10

Filename D:\EACrips\Collide-Counting_to_Zero\Slow_Down-Collide-Counting_to_Zero-10.wav

Peak level 98.8 % Extraction speed 48.8 X Track quality 99.9 % Test CRC 3045FE61 Copy CRC 3045FE61 Track not present in AccurateRip database Copy OK

Track 11

Filename D:\EACrips\Collide-Counting_to_Zero\Letting_Go-Collide-Counting_to_Zero-11.wav

Peak level 98.8 % Extraction speed 56.3 X Track quality 100.0 % Test CRC A3DB101E Copy CRC A3DB101E Track not present in AccurateRip database Copy OK

None of the tracks are present in the AccurateRip database

No errors occurred

End of status report

---- CUETools DB Plugin V2.1.3

[CTDB TOCID: bghDFeOG1_1T6NMrV6c1znnN92A-] found, Submit result: already submitted[53ea45ac] (3/3) Accurately ripped

==== Log checksum 2445A7C8F08F8EE804907DAF6D97D345B79DD2CF8EF00A9F2BDC0A09D0BBBAF8 ====
  
ват.сд


Трекер:  [ 06-Май-2012 14:50 ]

  

Скачать .torrent

Размер .torrent файла 19 KB


Размер: 2.59 GB
Хэш (hash) релиза: 3666762bb703c5f0d8bf067079d89b189846cf9d

Еще никто не оставлял запись к записи скачать торрент Collide - Дискография - 1996-2011 ALAC, lossless . Будь первым!

!Обратная связь