Скачать через торрент музыку Peter Delano - Peter Delano - 1993, FLAC бесплатно без регистрации torrent

Если у вас наблюдаются проблемы со скриншотами, переходом по ссылками, скачиванием торрентов - проблемы в блокировщике рекламы AdBlock. #хорошегоДня!


Статистика раздачи
Размер:  366 MB   |    Зарегистрирован:  5 лет 7 месяцев   |    .torrent скачан:  30 раз   |   
Раздают:  1  
   
Загрузка...
 
Автор Сообщение

Umakiro

avatar Umakiro


•Peter Delano - Peter Delano•

Жанр: Post-Bop
Страна-производитель диска: USA
Год издания диска: 1993
Издатель (лейбл): Verve
Номер по каталогу: 314 519 602-2
Аудиокодек: FLAC (*.flac)
Тип рипа: image+.cue
Битрейт аудио: lossless
Продолжительность: 01:08:25
Источник (релизер): Рип с диска.
Наличие сканов в содержимом раздачи: да

[b]Треклист[/b]:

01. Elephants In The Sky
02. Experiencing Change
03. Gesticulations
04. Entranced
05. Miles Mode
06. Piano Improvisation 1
07. I Remember Clifford
08. Say Uncle
09. Central Park Waltz
10. Anicca
11. Autumn Leaves
12. Reminiscence


Personnel:Peter Delano - p
Michael Brecker - ts
Gary Bartz - as,ss
Tim Hagans - tp
Ira Coleman - b
Jay Anderson - b (2,4,9,11)
Lewis Nash - dr
  
Exact Audio Copy V1.0 beta 3 from 29. August 2011

Отчёт EAC об извлечении, выполненном 27. февраля 2012, 15:43

Peter Delano / Peter Delano

Дисковод: TSSTcorpCDDVDW SH-S223C Adapter: 5 ID: 0

Режим чтения : ДостоверностьИспользование точного потока : ДаОтключение кэша аудио : ДаИспользование указателей C2 : Нет

Коррекция смещения при чтении : 697Способность читать области Lead-in и Lead-out : НетЗаполнение пропущенных сэмплов тишиной : ДаУдаление блоков с тишиной в начале и конце : НетПри вычислениях CRC использовались нулевые сэмплы : ДаИнтерфейс : Встроенный Win32-интерфейс для Win NT/2000

Выходной формат : Пользовательский кодировщикВыбранный битрейт : 128 kBit/sКачество : ВысокийДобавление ID3-тега : НетУтилита сжатия : C:\Program Files\Exact Audio Copy\Flac\flac.exeДополнительные параметры : -V -8 -T "Genre=%genre%" -T "Artist=%artist%" -T "Title=%title%" -T "Album=%albumtitle%" -T "Date=%year%" -T "Tracknumber=%tracknr%" -T "Comment=%comment%" %source%

TOC извлечённого CD

Трек | Старт | Длительность | Начальный сектор | Конечный сектор --------------------------------------------------------------------- 1 | 0:00.32 | 6:03.00 | 32 | 27256 2 | 6:03.32 | 6:00.43 | 27257 | 54299 3 | 12:04.00 | 5:12.60 | 54300 | 77759 4 | 17:16.60 | 6:02.25 | 77760 | 104934 5 | 23:19.10 | 6:25.65 | 104935 | 133874 6 | 29:45.00 | 2:21.47 | 133875 | 144496 7 | 32:06.47 | 6:24.53 | 144497 | 173349 8 | 38:31.25 | 7:00.12 | 173350 | 204861 9 | 45:31.37 | 5:48.58 | 204862 | 231019 10 | 51:20.20 | 5:41.17 | 231020 | 256611 11 | 57:01.37 | 5:04.28 | 256612 | 279439 12 | 62:05.65 | 6:20.07 | 279440 | 307946

Характеристики диапазона извлечения и сообщения об ошибках

Выбранный диапазон

Имя файла C:\Шахматы\1993.Peter Delano - Peter Delano\Peter Delano - Peter Delano.wav

Пиковый уровень 99.0 % Скорость извлечения 3.5 X Качество диапазона 100.0 % CRC теста 32E3913C CRC копии 32E3913C Копирование... OK

Ошибок не произошло

Конец отчёта

==== Контрольная сумма отчёта 399903E480CA51D564A4618045F44DF83ACD27748F8A56BEB3907CFA93DEDC49 ====
  
REM GENRE " Jazz"REM DATE 1993REM DISCID A010090CREM COMMENT "ExactAudioCopy v1.0b3"PERFORMER "Peter Delano"TITLE "Peter Delano"FILE "Peter Delano - Peter Delano.flac" WAVE TRACK 01 AUDIO TITLE "Elephants In The Sky" PERFORMER "Peter Delano" INDEX 00 00:00:00 INDEX 01 00:00:32 TRACK 02 AUDIO TITLE "Experiencing Change" PERFORMER "Peter Delano" INDEX 00 06:02:25 INDEX 01 06:03:32 TRACK 03 AUDIO TITLE "Gesticulations" PERFORMER "Peter Delano" INDEX 01 12:04:00 TRACK 04 AUDIO TITLE "Entranced" PERFORMER "Peter Delano" INDEX 00 17:15:65 INDEX 01 17:16:60 TRACK 05 AUDIO TITLE "Miles Mode" PERFORMER "Peter Delano" INDEX 00 23:18:35 INDEX 01 23:19:10 TRACK 06 AUDIO TITLE "Piano Improvisation 1" PERFORMER "Peter Delano" INDEX 00 29:44:00 INDEX 01 29:45:00 TRACK 07 AUDIO TITLE "I Remember Clifford" PERFORMER "Peter Delano" INDEX 01 32:06:47 TRACK 08 AUDIO TITLE "Say Uncle" PERFORMER "Peter Delano" INDEX 00 38:31:02 INDEX 01 38:31:25 TRACK 09 AUDIO TITLE "Central Park Waltz" PERFORMER "Peter Delano" INDEX 00 45:29:60 INDEX 01 45:31:37 TRACK 10 AUDIO TITLE "Anicca" PERFORMER "Peter Delano" INDEX 01 51:20:20 TRACK 11 AUDIO TITLE "Autumn Leaves" PERFORMER "Peter Delano" INDEX 00 57:00:62 INDEX 01 57:01:37 TRACK 12 AUDIO TITLE "Reminiscence" PERFORMER "Peter Delano" INDEX 00 62:04:07 INDEX 01 62:05:65


Трекер:  [ 28-Фев-2012 13:45 ]

  

Скачать .torrent

Размер .torrent файла 15 KB


Размер: 366 MB
Хэш (hash) релиза: fbe4f00a38d594e605c9aa5ce9ca673d5c722499

Еще никто не оставлял запись к записи скачать торрент Peter Delano - Peter Delano - 1993, FLAC . Будь первым!

!Обратная связь