Скачать через торрент The Cranberries - Roses - 2012 ALAC, lossless бесплатно русская версия torrent активатор

Если у вас наблюдаются проблемы со скриншотами, переходом по ссылками, скачиванием торрентов - проблемы в блокировщике рекламы AdBlock. #хорошегоДня!


Статистика раздачи
Размер:  309 MB   |    Зарегистрирован:  5 лет 5 месяцев   |    .torrent скачан:  74 раза   |   
Раздают:  1  
   
Загрузка...
 
Автор Сообщение

Galfimbul

avatar Galfimbul


The Cranberries - Roses

Год: 2012
Страна: Ireland
Жанр: Pop Rock, Dream Pop
Продолжительность: 44:20
Тексты: вшиты
Кодек: ALAC
Программа-риповщик : foobar2000 + iTunes (lossless)
Битрейт: lossless
Треклист:
01. Conduct (05:10)
02. Tomorrow (03:55)
03. Fire & Soul (04:31)
04. Raining In My Heart (03:26)
05. Losing My Mind (03:39)
06. Schizophrenic Playboys (03:39)
07. Waiting In Walthamstow (04:18)
08. Show Me (03:25)
09. Astral Projections (04:44)
10. So Good (03:53)
11. Roses (03:40)
Доп. информация: прошу скачавших поддерживать раздачу, поскольку через пару дней сам с нею свалю
  
Exact Audio Copy V1.0 beta 1 from 15. November 2010

EAC extraction logfile from 13. February 2012, 22:26

The Cranberries / Roses

Used drive : PIONEER DVD-RW DVR-K17LF Adapter: 2 ID: 0

Read mode : SecureUtilize accurate stream : YesDefeat audio cache : YesMake use of C2 pointers : No

Read offset correction : 48Overread into Lead-In and Lead-Out : NoFill up missing offset samples with silence : YesDelete leading and trailing silent blocks : NoNull samples used in CRC calculations : YesUsed interface : Native Win32 interface for Win NT & 2000Gap handling : Appended to previous track

Used output format : User Defined EncoderSelected bitrate : 1024 kBit/sQuality : HighAdd ID3 tag : NoCommand line compressor : C:\Program Files\FLAC\flac.exeAdditional command line options : -8 -V -T "artist=%a" -T "title=%t" -T "album=%g" -T "date=%y" -T "tracknumber=%n" -T "genre=%m" -T "comment=EAC 1.1beta1/ FLAC 1.1.0 q6" %s

TOC of the extracted CD

Track | Start | Length | Start sector | End sector --------------------------------------------------------- 1 | 0:00.00 | 5:10.19 | 0 | 23268 2 | 5:10.19 | 3:55.34 | 23269 | 40927 3 | 9:05.53 | 4:31.42 | 40928 | 61294 4 | 13:37.20 | 3:26.69 | 61295 | 76813 5 | 17:04.14 | 3:39.26 | 76814 | 93264 6 | 20:43.40 | 3:39.24 | 93265 | 109713 7 | 24:22.64 | 4:18.23 | 109714 | 129086 8 | 28:41.12 | 3:25.50 | 129087 | 144511 9 | 32:06.62 | 4:44.01 | 144512 | 165812 10 | 36:50.63 | 3:53.05 | 165813 | 183292 11 | 40:43.68 | 3:40.60 | 183293 | 199852

Track 1

Filename F:\RIP\The Cranberries - Roses (2012)\01. The Cranberries - Conduct.wav

Pre-gap length 0:00:02.00

Peak level 100.0 % Extraction speed 3.0 X Track quality 100.0 % Test CRC 167B98FF Copy CRC 167B98FF Track not present in AccurateRip database Copy OK

Track 2

Filename F:\RIP\The Cranberries - Roses (2012)\02. The Cranberries - Tomorrow.wav

Peak level 100.0 % Extraction speed 2.8 X Track quality 99.9 % Test CRC E7C05E71 Copy CRC E7C05E71 Track not present in AccurateRip database Copy OK

Track 3

Filename F:\RIP\The Cranberries - Roses (2012)\03. The Cranberries - Fire & Soul.wav

Peak level 100.0 % Extraction speed 3.5 X Track quality 100.0 % Test CRC 28A360E3 Copy CRC 28A360E3 Track not present in AccurateRip database Copy OK

Track 4

Filename F:\RIP\The Cranberries - Roses (2012)\04. The Cranberries - Raining In My Heart.wav

Peak level 100.0 % Extraction speed 3.5 X Track quality 100.0 % Test CRC 10F532CB Copy CRC 10F532CB Track not present in AccurateRip database Copy OK

Track 5

Filename F:\RIP\The Cranberries - Roses (2012)\05. The Cranberries - Losing My Mind.wav

Peak level 100.0 % Extraction speed 3.7 X Track quality 100.0 % Test CRC 35EEFA21 Copy CRC 35EEFA21 Track not present in AccurateRip database Copy OK

Track 6

Filename F:\RIP\The Cranberries - Roses (2012)\06. The Cranberries - Schizophrenic Playboys.wav

Peak level 100.0 % Extraction speed 3.9 X Track quality 100.0 % Test CRC 3BC54C43 Copy CRC 3BC54C43 Track not present in AccurateRip database Copy OK

Track 7

Filename F:\RIP\The Cranberries - Roses (2012)\07. The Cranberries - Waiting In Walthamstow.wav

Peak level 100.0 % Extraction speed 4.1 X Track quality 100.0 % Test CRC FDE1EBFA Copy CRC FDE1EBFA Track not present in AccurateRip database Copy OK

Track 8

Filename F:\RIP\The Cranberries - Roses (2012)\08. The Cranberries - Show Me.wav

Peak level 100.0 % Extraction speed 4.2 X Track quality 100.0 % Test CRC 0F91562D Copy CRC 0F91562D Track not present in AccurateRip database Copy OK

Track 9

Filename F:\RIP\The Cranberries - Roses (2012)\09. The Cranberries - Astral Projections.wav

Peak level 100.0 % Extraction speed 4.5 X Track quality 100.0 % Test CRC C0381985 Copy CRC C0381985 Track not present in AccurateRip database Copy OK

Track 10

Filename F:\RIP\The Cranberries - Roses (2012)\10. The Cranberries - So Good.wav

Peak level 100.0 % Extraction speed 4.5 X Track quality 100.0 % Test CRC E446E932 Copy CRC E446E932 Track not present in AccurateRip database Copy OK

Track 11

Filename F:\RIP\The Cranberries - Roses (2012)\11. The Cranberries - Roses.wav

Peak level 100.0 % Extraction speed 4.6 X Track quality 100.0 % Test CRC 7DC67D99 Copy CRC 7DC67D99 Track not present in AccurateRip database Copy OK

None of the tracks are present in the AccurateRip database

No errors occurred

End of status report

==== Log checksum 2EA473EBE2D80AF362A92DA68E968DE5A38B6D92F0D0B0B589F267D0482F852F ====


Трекер:  [ 06-Май-2012 14:50 ]

  

Скачать .torrent

Размер .torrent файла 13 KB


Размер: 309 MB
Хэш (hash) релиза: c2f3a25b540999c3125bf856a690d8fe10c3e9db

Еще никто не оставлял запись к записи скачать торрент The Cranberries - Roses - 2012 ALAC, lossless . Будь первым!

!Обратная связь