Скачать через торрент The Hobbit Shire - Дискография - 2005 - 2007 бесплатно русская версия torrent активатор

Если у вас наблюдаются проблемы со скриншотами, переходом по ссылками, скачиванием торрентов - проблемы в блокировщике рекламы AdBlock. #хорошегоДня!


Статистика раздачи
Размер:  579 MB   |    Зарегистрирован:  5 лет 5 месяцев   |    .torrent скачан:  44 раза   |   
Раздают:  1  
   
Загрузка...
 
Автор Сообщение

Galfimbul

avatar Galfimbul


The Hobbit Shire - Дискография



Год: 2005 - 2007
Страна: Россия
Страна-производитель диска: Россия
Жанр: Fantasy Rock
Тип издания: оригинал
Наличие сканов в содержимом раздачи: да
Продолжительность: 01:20:47
Тексты: отсутствуют
Кодек: ALAC
Программа-риповщик : foobar2000 + iTunes (lossless)
Битрейт: lossless
Треклист:
01. Перекрёсток миров
02. Хоббиты из Шира
03. День рождения дяди Бильбо
04. За синие горы...
05. Предание
06. Ария Галадриэли
07. Не выпускай из рук меча
08. Посвящение Фродо
09. Идиллия
10. Как хоббит носки искал
11. Одной крови
12. Сказка
  
Exact Audio Copy V0.99 prebeta 5 from 4. May 2009

Отчёт EAC об извлечении, выполненном 20. ноября 2009, 12:08

The Hobbit Shire / Fantasy Rock II

Дисковод: Optiarc DVD RW AD-5240S Adapter: 1 ID: 1

Режим чтения : ДостоверностьИспользование точного потока : ДаОтключение кэша аудио : ДаИспользование указателей C2 : Нет

Коррекция смещения при чтении : 48Способность читать области Lead-in и Lead-out : НетЗаполнение пропущенных сэмплов тишиной : ДаУдаление блоков с тишиной в начале и конце : НетПри вычислениях CRC использовались нулевые сэмплы : ДаИнтерфейс : Встроенный Win32-интерфейс для Win NT/2000

Выходной формат : Пользовательский кодировщикВыбранный битрейт : 768 kBit/sКачество : ВысокийДобавление ID3-тэга : НетУтилита сжатия : C:\Program Files\Exact Audio Copy\FLAC\FLAC.EXEДополнительные параметры : -8 -V -T "ARTIST=%a" -T "TITLE=%t" -T "ALBUM=%g" -T "DATE=%y" -T "TRACKNUMBER=%n" -T "GENRE=%m" -T "COMMENT=%e" %s -o %d

TOC извлечённого CD

Трек | Старт | Длительность | Начальный сектор | Конечный сектор --------------------------------------------------------------------- 1 | 0:00.00 | 3:42.37 | 0 | 16686 2 | 3:42.37 | 3:54.13 | 16687 | 34249 3 | 7:36.50 | 3:42.64 | 34250 | 50963 4 | 11:19.39 | 3:58.72 | 50964 | 68885 5 | 15:18.36 | 2:03.39 | 68886 | 78149 6 | 17:22.00 | 5:02.24 | 78150 | 100823 7 | 22:24.24 | 4:40.43 | 100824 | 121866 8 | 27:04.67 | 4:28.56 | 121867 | 142022 9 | 31:33.48 | 3:28.58 | 142023 | 157680 10 | 35:02.31 | 4:11.28 | 157681 | 176533 11 | 39:13.59 | 5:40.06 | 176534 | 202039 12 | 44:53.65 | 2:53.20 | 202040 | 215034 13 | 50:19.10 | 0:07.43 | 226435 | 227002

Характеристики диапазона извлечения и сообщения об ошибках

Выбранный диапазон

Имя файла D:\Music\The Hobbit Shire\Fantasy Rock II\The Hobbit Shire - Fantasy Rock II.wav

Пиковый уровень 99.0 % Качество диапазона 99.9 % CRC теста 47DECE19 CRC копии 47DECE19 Копирование... OK

Ошибок не произошло

AccurateRip: сводка

Трек 1 нет в базе данныхТрек 2 нет в базе данныхТрек 3 нет в базе данныхТрек 4 нет в базе данныхТрек 5 нет в базе данныхТрек 6 нет в базе данныхТрек 7 нет в базе данныхТрек 8 нет в базе данныхТрек 9 нет в базе данныхТрек 10 нет в базе данныхТрек 11 нет в базе данныхТрек 12 нет в базе данных

Ни одного трека нет в базе AccurateRip

Конец отчёта
01. Битва в океане
02. Несласть актерская кибитка
03. Варвары
04. Война
05. Легенда о проклятом
06. Песня о вольных стрелках
07. На озерном берегу
08. Пергамент
09. Вечер у писателя
10. Колыбельная-2
  
Exact Audio Copy V0.99 prebeta 4 from 23. January 2008

Отчёт EAC об извлечении, выполненном 13. июля 2008, 12:54

The Hobbit's Shire / Эскизы легенд

Дисковод: _NEC DVD_RW ND-3520A Adapter: 1 ID: 0

Режим чтения : Достоверность Использование точного потока : Да Отключение кэша аудио : Да Использование указателей C2 : Нет

Коррекция смещения при чтении : 48 Способность читать области Lead-in и Lead-out : Нет Заполнение пропущенных сэмплов тишиной : Да Удаление блоков с тишиной в начале и конце : Нет При вычислениях CRC использовались нулевые сэмплы : Да Интерфейс : Установленный внешний ASPI-интерфейс

Выходной формат : Внутренние WAV-операции Формат сэмплов : 44.100 Гц; 16 бит; стерео

TOC извлечённого CD

Трек | Старт | Длительность | Начальный сектор | Конечный сектор --------------------------------------------------------------------- 1 | 0:00.00 | 1:37.38 | 0 | 7312 2 | 1:37.38 | 4:32.13 | 7313 | 27725 3 | 6:09.51 | 3:24.36 | 27726 | 43061 4 | 9:34.12 | 2:51.73 | 43062 | 55959 5 | 12:26.10 | 4:21.15 | 55960 | 75549 6 | 16:47.25 | 2:33.67 | 75550 | 87091 7 | 19:21.17 | 4:40.28 | 87092 | 108119 8 | 24:01.45 | 4:05.07 | 108120 | 126501 9 | 28:06.52 | 2:24.18 | 126502 | 137319 10 | 30:30.70 | 2:29.06 | 137320 | 148500

Характеристики диапазона извлечения и сообщения об ошибках

Выбранный диапазон

Имя файла C:\Documents and Settings\Admin\Мои документы\Downloads\2007 - Эскизы Легенд [APE]\The Hobbit's Shire - Эскизы легенд.wav

Пиковый уровень 98.8 % Качество диапазона 100.0 % CRC копии DF191936 Копирование... OK

Ошибок не произошло

AccurateRip: сводка

Трек 1 точное извлечение (доверие 1) [12BBE638] Трек 2 точное извлечение (доверие 1) [D4E4EB3E] Трек 3 точное извлечение (доверие 1) [14BB7F63] Трек 4 точное извлечение (доверие 1) [D61DA89F] Трек 5 точное извлечение (доверие 1) [6E4FAC8F] Трек 6 точное извлечение (доверие 1) [27AD848D] Трек 7 точное извлечение (доверие 1) [A28158F6] Трек 8 точное извлечение (доверие 1) [9318842C] Трек 9 точное извлечение (доверие 1) [2CD1A12F] Трек 10 точное извлечение (доверие 1) [191BC145]

Все треки извлечены точно

Конец отчёта

  
Started at: суббота, 25. 02. 2012. - 1:33.532 files found

1 -===- F:\Music lossless\The Hobbit Shire\2005 - Fantasy Rock II\The Hobbit Shire - Fantasy Rock II.flac Extracted successfully Conclusion: this track is CDDA with probability 100% Tempfile successfully deleted.

2 -===- F:\Music lossless\The Hobbit Shire\2007 - Эскизы Легенд\The Hobbit's Shire - Эскизы легенд.ape Extracted successfully Conclusion: this track is CDDA with probability 99% Tempfile successfully deleted.

Finished at: суббота, 25. 02. 2012. - 1:39.48 (operation time: 0:05.55)


Трекер:  [ 06-Май-2012 14:50 ]

  

Скачать .torrent

Размер .torrent файла 14 KB


Размер: 579 MB
Хэш (hash) релиза: e89bb0753fc2b4867fa2e9b01e6fe4f74acf8e3f

Еще никто не оставлял запись к записи скачать торрент The Hobbit Shire - Дискография - 2005 - 2007 . Будь первым!

!Обратная связь