Скачать через торрент Apache - Five Spirits - 2004 бесплатно русская версия torrent активатор

Если у вас наблюдаются проблемы со скриншотами, переходом по ссылками, скачиванием торрентов - проблемы в блокировщике рекламы AdBlock. #хорошегоДня!


Статистика раздачи
Размер:  495 MB   |    Зарегистрирован:  5 лет 5 месяцев   |    .torrent скачан:  48 раз   |   
Раздают:  1  
   
Загрузка...
 
Автор Сообщение

Galfimbul

avatar Galfimbul


Apache - Five Spirits

Год: 2004
Страна: Перу
Страна-производитель диска: Польша
Источник: Собственный CD
Жанр: Folk
Тип издания: оригинал
Издатель (лейбл): Suramericana Production
Номер по каталогу: SP-17
Наличие сканов в содержимом раздачи: да
Продолжительность: 01:13:54
Тексты: отсутствуют
Кодек: ALAC
Программа-риповщик : foobar2000 + iTunes (lossless)
Битрейт: lossless
Треклист:
01. Five Spirits
02. White Buffalo
03. Love Mountain
04. Wuayrapa-Muspuynin
05. Ananao
06. Chief Wuite Bears
07. Wakan Tanka Vision
08. Tatanka
09. Ly-O-Lay Ale Loya
10. Sunkuyman
11. Pow-Wow-Dancing
12. Ya-Na-Hana
13. Amanecer
  
Exact Audio Copy V0.99 prebeta 5 from 4. May 2009

Отчёт EAC об извлечении, выполненном 28. декабря 2009, 15:23

Apache / Apache

Дисковод: _NEC DVD_RW ND-3550A Adapter: 0 ID: 0

Режим чтения : ДостоверностьИспользование точного потока : ДаОтключение кэша аудио : ДаИспользование указателей C2 : Нет

Коррекция смещения при чтении : 48Способность читать области Lead-in и Lead-out : НетЗаполнение пропущенных сэмплов тишиной : ДаУдаление блоков с тишиной в начале и конце : НетПри вычислениях CRC использовались нулевые сэмплы : ДаИнтерфейс : Установленный внешний ASPI-интерфейс

Выходной формат : Внутренние WAV-операцииФормат сэмплов : 44.100 Гц; 16 бит; стерео

TOC извлечённого CD

Трек | Старт | Длительность | Начальный сектор | Конечный сектор --------------------------------------------------------------------- 1 | 0:00.00 | 5:50.49 | 0 | 26298 2 | 5:50.49 | 6:06.05 | 26299 | 53753 3 | 11:56.54 | 5:37.45 | 53754 | 79073 4 | 17:34.24 | 6:27.51 | 79074 | 108149 5 | 24:02.00 | 5:05.39 | 108150 | 131063 6 | 29:07.39 | 4:21.37 | 131064 | 150675 7 | 33:29.01 | 6:05.35 | 150676 | 178085 8 | 39:34.36 | 5:37.46 | 178086 | 203406 9 | 45:12.07 | 6:00.31 | 203407 | 230437 10 | 51:12.38 | 6:27.23 | 230438 | 259485 11 | 57:39.61 | 4:40.45 | 259486 | 280530 12 | 62:20.31 | 5:28.10 | 280531 | 305140 13 | 67:48.41 | 6:05.37 | 305141 | 332552

Характеристики диапазона извлечения и сообщения об ошибках

Выбранный диапазон

Имя файла F:\Apache - Apache.wav

Пиковый уровень 100.0 % Качество диапазона 99.9 % CRC копии C3748E24 Копирование... OK

Ошибок не произошло

Конец отчёта
  
Started at: суббота, 25. 02. 2012. - 10:16.551 file found

1 -===- F:\Music lossless\1\Apache lossless\Apache - Apache.flac Extracted successfully Conclusion: this track is CDDA with probability 100% Tempfile successfully deleted.

Finished at: суббота, 25. 02. 2012. - 10:22.04 (operation time: 0:05.09)


Трекер:  [ 06-Май-2012 14:50 ]

  

Скачать .torrent

Размер .torrent файла 20 KB


Размер: 495 MB
Хэш (hash) релиза: e7815df40d859fe6b6e63f6b5b2ce305b263d811

Еще никто не оставлял запись к записи скачать торрент Apache - Five Spirits - 2004 . Будь первым!

!Обратная связь