Скачать через торрент Howard Shore - The Lord Of The Rings Symphony - 2011 бесплатно русская версия torrent активатор

Если у вас наблюдаются проблемы со скриншотами, переходом по ссылками, скачиванием торрентов - проблемы в блокировщике рекламы AdBlock. #хорошегоДня!


Статистика раздачи
Размер:  572 MB   |    Зарегистрирован:  5 лет 5 месяцев   |    .torrent скачан:  32 раза   |   
Раздают:  1  
   
Загрузка...
 
Автор Сообщение

Galfimbul

avatar Galfimbul


Howard Shore - The Lord Of The Rings Symphony

Год: 2011
Страна: Великобритания
Страна-производитель диска: Великобритания
Жанр: Classical/Soundtrack
Тип издания: оригинал
Издатель (лейбл): Howe Records
Номер по каталогу: HWR-1005
Наличие сканов в содержимом раздачи: да
Продолжительность: 01:55:53
Тексты: не требуются
Кодек: ALAC
Программа-риповщик : foobar2000 + iTunes (lossless)
Битрейт: lossless
Треклист:
CD 1:
The Fellowship of the Ring
01. Movement One
02. Movement Two

CD 2:
The Two Towers
01. Movement Three
02. Movement Four
The Return of the King
03. Movement Five
04. Movement Six
Kaitlyn Lusk, vocal
21st Century Symphony Orchestra & Chorus
Ludwig Wicki

  
Exact Audio Copy V1.0 beta 1 from 15. November 2010

EAC extraction logfile from 18. February 2012, 11:34

Howard Shore / The Lord Of The Rings Symphony (CD1)

Used drive : Optiarc DVD RW AD-7203A Adapter: 4 ID: 1

Read mode : SecureUtilize accurate stream : YesDefeat audio cache : YesMake use of C2 pointers : No

Read offset correction : 48Overread into Lead-In and Lead-Out : NoFill up missing offset samples with silence : YesDelete leading and trailing silent blocks : NoNull samples used in CRC calculations : YesUsed interface : Native Win32 interface for Win NT & 2000

Used output format : User Defined EncoderSelected bitrate : 128 kBit/sQuality : HighAdd ID3 tag : NoCommand line compressor : C:\Program Files\FLAC\flac.exeAdditional command line options : -T "COMMENT=Ripped by GFox" -8 -V %s

TOC of the extracted CD

Track | Start | Length | Start sector | End sector --------------------------------------------------------- 1 | 0:00.00 | 11:25.70 | 0 | 51444 2 | 11:25.70 | 34:04.18 | 51445 | 204762

Range status and errors

Selected range

Filename D:\EAC\Howard Shore - The Lord Of The Rings Symphony (CD1).wav

Peak level 97.7 % Extraction speed 2.9 X Range quality 100.0 % Test CRC 3E0A9E1D Copy CRC 3E0A9E1D Copy OK

No errors occurred

AccurateRip summary

Track 1 accurately ripped (confidence 2) [ECE89A3D]Track 2 accurately ripped (confidence 2) [11937271]

All tracks accurately ripped

End of status report

==== Log checksum 55F457476D62C2026D087032FAE5524780314B58A7011B6C3145509C40241177 ====
  
Exact Audio Copy V1.0 beta 1 from 15. November 2010

EAC extraction logfile from 19. February 2012, 17:15

Howard Shore / The Lord Of The Rings Symphony (CD2)

Used drive : Optiarc DVD RW AD-7203A Adapter: 4 ID: 1

Read mode : SecureUtilize accurate stream : YesDefeat audio cache : YesMake use of C2 pointers : No

Read offset correction : 48Overread into Lead-In and Lead-Out : NoFill up missing offset samples with silence : YesDelete leading and trailing silent blocks : NoNull samples used in CRC calculations : YesUsed interface : Native Win32 interface for Win NT & 2000

Used output format : User Defined EncoderSelected bitrate : 128 kBit/sQuality : HighAdd ID3 tag : NoCommand line compressor : C:\Program Files\FLAC\flac.exeAdditional command line options : -T "COMMENT=Ripped by GFox" -8 -V %s

TOC of the extracted CD

Track | Start | Length | Start sector | End sector --------------------------------------------------------- 1 | 0:00.00 | 18:15.33 | 0 | 82157 2 | 18:15.33 | 10:28.37 | 82158 | 129294 3 | 28:43.70 | 15:26.61 | 129295 | 198805 4 | 44:10.56 | 26:12.72 | 198806 | 316777

Range status and errors

Selected range

Filename D:\EAC\Howard Shore - The Lord Of The Rings Symphony (CD2).wav

Peak level 97.9 % Extraction speed 1.2 X Range quality 100.0 % Test CRC 9609CEC9 Copy CRC 9609CEC9 Copy OK

No errors occurred

AccurateRip summary

Track 1 accurately ripped (confidence 3) [1507AA80]Track 2 accurately ripped (confidence 3) [B8313E10]Track 3 accurately ripped (confidence 3) [B1F941F0]Track 4 accurately ripped (confidence 3) [5E79F3E7]

All tracks accurately ripped

End of status report

==== Log checksum 154746F0D88EA06DAC969F94E3DC2B74B3BCBE7E9A0992C315AED4DA0EA1E378 ====
  
Started at: суббота, 25. 02. 2012. - 15:11.422 files found

1 -===- F:\Music lossless\1\Howard Shore - The Lord Of The Rings Symphony\CD1\Howard Shore - The Lord Of The Rings Symphony (CD1).flac Extracted successfully Conclusion: this track is CDDA with probability 100% Tempfile successfully deleted.

2 -===- F:\Music lossless\1\Howard Shore - The Lord Of The Rings Symphony\CD2\Howard Shore - The Lord Of The Rings Symphony (CD2).flac Extracted successfully Conclusion: this track is CDDA with probability 100% Tempfile successfully deleted.

Finished at: суббота, 25. 02. 2012. - 15:20.45 (operation time: 0:09.03)


Трекер:  [ 06-Май-2012 14:50 ]

  

Скачать .torrent

Размер .torrent файла 12 KB


Размер: 572 MB
Хэш (hash) релиза: 1399490e129aaa0d832b6a4e814976f74b2ac2e6

Еще никто не оставлял запись к записи скачать торрент Howard Shore - The Lord Of The Rings Symphony - 2011 . Будь первым!

!Обратная связь