Скачать через торрент Saint Etienne - So Tough - 1993 ALAC, lossless бесплатно русская версия torrent активатор

Если у вас наблюдаются проблемы со скриншотами, переходом по ссылками, скачиванием торрентов - проблемы в блокировщике рекламы AdBlock. #хорошегоДня!


Статистика раздачи
Размер:  287 MB   |    Зарегистрирован:  5 лет 5 месяцев   |    .torrent скачан:  25 раз   |   
Раздают:  1  
   
Загрузка...
 
Автор Сообщение

Galfimbul

avatar Galfimbul


Saint Etienne - So Tough

Год: 1993
Страна: UK
Жанр: Electronic, Indie
Продолжительность: 52:15
Тексты: вшиты
Кодек: ALAC
Программа-риповщик : foobar2000 + iTunes (lossless)
Битрейт: lossless
Треклист:
1. Mario's Cafe (4:38)
2. Railway Jam (4:14)
3. Date With Spelman (0:18)
4. Calico (5:13)
5. Avenue (7:35)
6. You're In A Bad Way (3:08)
7. Memo To Pricey (0:23)
8. Hobart Paving (4:57)
9. Leafhound (4:12)
10. Clock Milk (0:14)
11. Conchita Martinez (4:00)
12. No Rainbows For Me (3:58)
13. Here Come Clown Feet (0:26)
14. Junk The Morgue (5:12)
15. Chicken Soup (0:19)
16. Join Our Club (3:22)
  
Exact Audio Copy V0.99 prebeta 4 from 23. January 2008

EAC extraction logfile from 3. May 2009, 9:47

Saint Etienne / So Tough

Used drive : SONY CD-RW CRX195E1 Adapter: 1 ID: 0

Read mode : SecureUtilize accurate stream : YesDefeat audio cache : YesMake use of C2 pointers : No

Read offset correction : 12Overread into Lead-In and Lead-Out : NoFill up missing offset samples with silence : YesDelete leading and trailing silent blocks : NoNull samples used in CRC calculations : YesUsed interface : Native Win32 interface for Win NT & 2000Gap handling : Appended to previous track

Used output format : User Defined EncoderSelected bitrate : 128 kBit/sQuality : HighAdd ID3 tag : NoCommand line compressor : C:\Program Files\Exact Audio Copy\Flac\flac.exeAdditional command line options : -V -8 -T "artist=%a" -T "title=%t" -T "album=%g" -T "date=%y" -T "tracknumber=%n" -T "genre=%m" %s

TOC of the extracted CD

Track | Start | Length | Start sector | End sector --------------------------------------------------------- 1 | 0:00.33 | 4:37.60 | 33 | 20867 2 | 4:38.18 | 4:14.40 | 20868 | 39957 3 | 8:52.58 | 0:18.05 | 39958 | 41312 4 | 9:10.63 | 5:12.67 | 41313 | 64779 5 | 14:23.55 | 7:34.40 | 64780 | 98869 6 | 21:58.20 | 3:07.45 | 98870 | 112939 7 | 25:05.65 | 0:22.50 | 112940 | 114639 8 | 25:28.40 | 4:57.25 | 114640 | 136939 9 | 30:25.65 | 4:11.65 | 136940 | 155829 10 | 34:37.55 | 0:14.10 | 155830 | 156889 11 | 34:51.65 | 3:59.55 | 156890 | 174869 12 | 38:51.45 | 3:58.15 | 174870 | 192734 13 | 42:49.60 | 0:25.60 | 192735 | 194669 14 | 43:15.45 | 5:12.05 | 194670 | 218074 15 | 48:27.50 | 0:33.63 | 218075 | 220612 16 | 49:01.38 | 3:22.10 | 220613 | 235772

Track 1

Filename C:\EACrips\Saint Etienne - 1993 - So Tough\01 - Mario's Cafe.wav

Pre-gap length 0:00:02.44

Peak level 56.9 % Track quality 100.0 % Test CRC D3CD242C Copy CRC D3CD242C Accurately ripped (confidence 5) [55A96CE5] Copy OK

Track 2

Filename C:\EACrips\Saint Etienne - 1993 - So Tough\02 - Railway Jam.wav

Peak level 55.7 % Track quality 100.0 % Test CRC 63FCAB52 Copy CRC 63FCAB52 Accurately ripped (confidence 5) [46F85E7F] Copy OK

Track 3

Filename C:\EACrips\Saint Etienne - 1993 - So Tough\03 - Date With Spelman.wav

Peak level 15.2 % Track quality 100.0 % Test CRC 2E4A023A Copy CRC 2E4A023A Accurately ripped (confidence 5) [60751400] Copy OK

Track 4

Filename C:\EACrips\Saint Etienne - 1993 - So Tough\04 - Calico.wav

Peak level 55.8 % Track quality 100.0 % Test CRC 5693D33C Copy CRC 5693D33C Accurately ripped (confidence 5) [F9883F82] Copy OK

Track 5

Filename C:\EACrips\Saint Etienne - 1993 - So Tough\05 - Avenue.wav

Peak level 62.1 % Track quality 100.0 % Test CRC 89E05783 Copy CRC 89E05783 Accurately ripped (confidence 5) [19CF721D] Copy OK

Track 6

Filename C:\EACrips\Saint Etienne - 1993 - So Tough\06 - You're In A Bad Way.wav

Peak level 55.1 % Track quality 99.9 % Test CRC 7869AE52 Copy CRC 7869AE52 Accurately ripped (confidence 6) [816B1F07] Copy OK

Track 7

Filename C:\EACrips\Saint Etienne - 1993 - So Tough\07 - Memo To Pricey.wav

Peak level 31.6 % Track quality 100.0 % Test CRC F232515E Copy CRC F232515E Accurately ripped (confidence 5) [C4143778] Copy OK

Track 8

Filename C:\EACrips\Saint Etienne - 1993 - So Tough\08 - Hobart Paving.wav

Peak level 45.6 % Track quality 100.0 % Test CRC 1B306F0E Copy CRC 1B306F0E Accurately ripped (confidence 6) [F991567B] Copy OK

Track 9

Filename C:\EACrips\Saint Etienne - 1993 - So Tough\09 - Leafhound.wav

Peak level 50.2 % Track quality 100.0 % Test CRC C7F10CBC Copy CRC C7F10CBC Accurately ripped (confidence 5) [15E1735D] Copy OK

Track 10

Filename C:\EACrips\Saint Etienne - 1993 - So Tough\10 - Clock Milk.wav

Peak level 25.3 % Track quality 100.0 % Test CRC 7E6B630D Copy CRC 7E6B630D Accurately ripped (confidence 6) [E3A73F44] Copy OK

Track 11

Filename C:\EACrips\Saint Etienne - 1993 - So Tough\11 - Conchita Martinez.wav

Peak level 62.7 % Track quality 99.9 % Test CRC D7822083 Copy CRC D7822083 Accurately ripped (confidence 5) [4AACF1B4] Copy OK

Track 12

Filename C:\EACrips\Saint Etienne - 1993 - So Tough\12 - No Rainbows For Me.wav

Peak level 49.5 % Track quality 100.0 % Test CRC C9316EF5 Copy CRC C9316EF5 Accurately ripped (confidence 6) [5FB3F966] Copy OK

Track 13

Filename C:\EACrips\Saint Etienne - 1993 - So Tough\13 - Here Come Clown Feet.wav

Peak level 24.2 % Track quality 100.0 % Test CRC D4A3FE15 Copy CRC D4A3FE15 Accurately ripped (confidence 6) [54F8FC3C] Copy OK

Track 14

Filename C:\EACrips\Saint Etienne - 1993 - So Tough\14 - Junk The Morgue.wav

Peak level 53.8 % Track quality 100.0 % Test CRC 30244225 Copy CRC 30244225 Accurately ripped (confidence 5) [B2F1B7F9] Copy OK

Track 15

Filename C:\EACrips\Saint Etienne - 1993 - So Tough\15 - Chicken Soup.wav

Peak level 14.3 % Track quality 100.0 % Test CRC 0E50F57C Copy CRC 0E50F57C Accurately ripped (confidence 5) [7E0ECE65] Copy OK

Track 16

Filename C:\EACrips\Saint Etienne - 1993 - So Tough\16 - Join Our Club.wav

Pre-gap length 0:00:15.04

Peak level 59.6 % Track quality 100.0 % Test CRC C044E14E Copy CRC C044E14E Accurately ripped (confidence 5) [E1829E3E] Copy OK

All tracks accurately ripped

No errors occurred

End of status report


Трекер:  [ 06-Май-2012 14:49 ]

  

Скачать .torrent

Размер .torrent файла 12 KB


Размер: 287 MB
Хэш (hash) релиза: e72cd3b97b3931dcd0b415c7adee62f231e8c7df

Еще никто не оставлял запись к записи скачать торрент Saint Etienne - So Tough - 1993 ALAC, lossless . Будь первым!

!Обратная связь