Скачать через торрент Saint Etienne - Smash the System: Singles and More - 2001 ALAC, lossless бесплатно русская версия torrent активатор

Если у вас наблюдаются проблемы со скриншотами, переходом по ссылками, скачиванием торрентов - проблемы в блокировщике рекламы AdBlock. #хорошегоДня!


Статистика раздачи
Размер:  987 MB   |    Зарегистрирован:  5 лет 5 месяцев   |    .torrent скачан:  28 раз   |   
Раздают:  1  
   
Загрузка...
 
Автор Сообщение

Galfimbul

avatar Galfimbul


Saint Etienne - Smash the System: Singles and More

Год: 2001
Страна: UK
Жанр: Electronic, Indie
Продолжительность: 2:26:04
Тексты: вшиты
Кодек: ALAC
Программа-риповщик : foobar2000 + iTunes (lossless)
Битрейт: lossless
Треклист:
Disc: 1
1. Only Love Can Break Your Heart
2. Kiss and Make Up
3. Nothing Can Stop Us
4. Spring
5. Carnt Sleep
6. Filthy
7. Join Our Club
8. People Get Real
9. Paper
10. Avenue
11. Mario's Cafe
12. You're in a Bad Way
13. Archway People
14. Who Do You Think You Are
15. Hobart Paving
16. Pale Movie
17. Hug My Soul

Disc: 2
1. Like a Motorway
2. Cool Kids of Death
3. Process
4. He's on the Phone
5. Angel
6. Burnt Out Car
7. Shad Thames
8. Wood Cabin
9. Sylvie
10. Lose That Girl
11. Bad Photographer
12. Goodnight Jack
13. Madeleine
14. 4.35 in the Morning
15. Jack Lemmon
16. Saturday
17. 52 Pilot
  
X Lossless Decoder version 20100918 (122.1)

XLD extraction logfile from 2010-09-21 20:21:59 +0200

Saint Etienne / Smash the System Singles and More

Used drive : YAMAHA CRW-F1E (revision 1.0g)

Use cdparanoia mode : YES (CDParanoia III 10.2 engine)
Disable audio cache : OK for the drive with cache less than 2750KB
Make use of C2 pointers : NO
Read offset correction : 733
Max retry count : 100
Gap status : Analyzed, Appended

TOC of the extracted CD
Track | Start | Length | Start sector | End sector
---------------------------------------------------------
1 | 00:00:00 | 04:30:25 | 0 | 20274
2 | 04:30:25 | 05:12:15 | 20275 | 43689
3 | 09:42:40 | 04:20:37 | 43690 | 63226
4 | 14:03:02 | 03:42:60 | 63227 | 79936
5 | 17:45:62 | 04:43:65 | 79937 | 101226
6 | 22:29:52 | 05:33:20 | 101227 | 126221
7 | 28:02:72 | 03:16:63 | 126222 | 140984
8 | 31:19:60 | 04:43:07 | 140985 | 162216
9 | 36:02:67 | 04:07:70 | 162217 | 180811
10 | 40:10:62 | 07:33:43 | 180812 | 214829
11 | 47:44:30 | 04:38:17 | 214830 | 235696
12 | 52:22:47 | 03:03:05 | 235697 | 249426
13 | 55:25:52 | 03:27:48 | 249427 | 264999
14 | 58:53:25 | 03:48:27 | 265000 | 282126
15 | 62:41:52 | 04:50:63 | 282127 | 303939
16 | 67:32:40 | 03:45:72 | 303940 | 320886
17 | 71:18:37 | 03:53:28 | 320887 | 338389

List of alternate offset correction values
# | Absolute | Relative | Confidence
------------------------------------------
1 | 1332 | 599 | 33

All Tracks
Album gain : -7.59 dB
Peak : 1.000000

Track 01
Filename : /Volumes/HD 2/Saint Etienne - 2001 - Smash The System/CD1/01 - Only Love Can Break Your Heart.flac
Pre-gap length : 00:02:00

Track gain : -7.25 dB
Peak : 1.000000
CRC32 hash (test run) : 6BA9351A
CRC32 hash : 6BA9351A
CRC32 hash (skip zero) : D4BA34AC
AccurateRip signature : 50C1CF58
->Accurately ripped! (confidence 11)
Statistics
Read error : 0
Skipped (treated as error) : 0
Edge jitter error (maybe fixed) : 0
Atom jitter error (maybe fixed) : 0
Drift error (maybe fixed) : 0
Dropped bytes error (maybe fixed) : 0
Duplicated bytes error (maybe fixed) : 0
Inconsistency in error sectors : 0

Track 02
Filename : /Volumes/HD 2/Saint Etienne - 2001 - Smash The System/CD1/02 - Kiss And Make Up.flac

Track gain : -6.63 dB
Peak : 1.000000
CRC32 hash (test run) : 384E3F16
CRC32 hash : 384E3F16
CRC32 hash (skip zero) : 895F2993
AccurateRip signature : 3FA84A87
->Accurately ripped! (confidence 11)
Statistics
Read error : 0
Skipped (treated as error) : 0
Edge jitter error (maybe fixed) : 0
Atom jitter error (maybe fixed) : 0
Drift error (maybe fixed) : 0
Dropped bytes error (maybe fixed) : 0
Duplicated bytes error (maybe fixed) : 0
Inconsistency in error sectors : 0

Track 03
Filename : /Volumes/HD 2/Saint Etienne - 2001 - Smash The System/CD1/03 - Nothing Can Stop Us.flac

Track gain : -8.66 dB
Peak : 1.000000
CRC32 hash (test run) : D97234D7
CRC32 hash : D97234D7
CRC32 hash (skip zero) : 7CB6A375
AccurateRip signature : 56FDB318
->Accurately ripped! (confidence 11)
Statistics
Read error : 0
Skipped (treated as error) : 0
Edge jitter error (maybe fixed) : 0
Atom jitter error (maybe fixed) : 0
Drift error (maybe fixed) : 0
Dropped bytes error (maybe fixed) : 0
Duplicated bytes error (maybe fixed) : 0
Inconsistency in error sectors : 0

Track 04
Filename : /Volumes/HD 2/Saint Etienne - 2001 - Smash The System/CD1/04 - Spring.flac

Track gain : -7.58 dB
Peak : 1.000000
CRC32 hash (test run) : DC20B9D5
CRC32 hash : DC20B9D5
CRC32 hash (skip zero) : 261F0503
AccurateRip signature : 36A5DB7A
->Accurately ripped! (confidence 11)
Statistics
Read error : 0
Skipped (treated as error) : 0
Edge jitter error (maybe fixed) : 0
Atom jitter error (maybe fixed) : 0
Drift error (maybe fixed) : 0
Dropped bytes error (maybe fixed) : 0
Duplicated bytes error (maybe fixed) : 0
Inconsistency in error sectors : 0

Track 05
Filename : /Volumes/HD 2/Saint Etienne - 2001 - Smash The System/CD1/05 - Carnt Sleep.flac

Track gain : -4.98 dB
Peak : 1.000000
CRC32 hash (test run) : CD621313
CRC32 hash : CD621313
CRC32 hash (skip zero) : 14CF234E
AccurateRip signature : 2A458468
->Accurately ripped! (confidence 11)
Statistics
Read error : 0
Skipped (treated as error) : 0
Edge jitter error (maybe fixed) : 0
Atom jitter error (maybe fixed) : 0
Drift error (maybe fixed) : 0
Dropped bytes error (maybe fixed) : 0
Duplicated bytes error (maybe fixed) : 0
Inconsistency in error sectors : 0

Track 06
Filename : /Volumes/HD 2/Saint Etienne - 2001 - Smash The System/CD1/06 - Filthy.flac

Track gain : -7.18 dB
Peak : 1.000000
CRC32 hash (test run) : 34D7A7AD
CRC32 hash : 34D7A7AD
CRC32 hash (skip zero) : 8256E5EC
AccurateRip signature : 7D74400A
->Accurately ripped! (confidence 11)
Statistics
Read error : 0
Skipped (treated as error) : 0
Edge jitter error (maybe fixed) : 0
Atom jitter error (maybe fixed) : 0
Drift error (maybe fixed) : 0
Dropped bytes error (maybe fixed) : 0
Duplicated bytes error (maybe fixed) : 0
Inconsistency in error sectors : 0

Track 07
Filename : /Volumes/HD 2/Saint Etienne - 2001 - Smash The System/CD1/07 - Join Our Club.flac

Track gain : -5.99 dB
Peak : 1.000000
CRC32 hash (test run) : B43C2EEE
CRC32 hash : B43C2EEE
CRC32 hash (skip zero) : 6FB3A316
AccurateRip signature : FAFBD1D3
->Accurately ripped! (confidence 11)
Statistics
Read error : 0
Skipped (treated as error) : 0
Edge jitter error (maybe fixed) : 0
Atom jitter error (maybe fixed) : 0
Drift error (maybe fixed) : 0
Dropped bytes error (maybe fixed) : 0
Duplicated bytes error (maybe fixed) : 0
Inconsistency in error sectors : 0

Track 08
Filename : /Volumes/HD 2/Saint Etienne - 2001 - Smash The System/CD1/08 - People Get Real.flac

Track gain : -8.07 dB
Peak : 1.000000
CRC32 hash (test run) : EC88BB8D
CRC32 hash : EC88BB8D
CRC32 hash (skip zero) : 8D9C75CF
AccurateRip signature : 3C5728E8
->Accurately ripped! (confidence 11)
Statistics
Read error : 0
Skipped (treated as error) : 0
Edge jitter error (maybe fixed) : 0
Atom jitter error (maybe fixed) : 0
Drift error (maybe fixed) : 0
Dropped bytes error (maybe fixed) : 0
Duplicated bytes error (maybe fixed) : 0
Inconsistency in error sectors : 0

Track 09
Filename : /Volumes/HD 2/Saint Etienne - 2001 - Smash The System/CD1/09 - Paper.flac

Track gain : -6.01 dB
Peak : 1.000000
CRC32 hash (test run) : 7EE337A7
CRC32 hash : 7EE337A7
CRC32 hash (skip zero) : 6CAC99C9
AccurateRip signature : 2865F949
->Accurately ripped! (confidence 11)
Statistics
Read error : 0
Skipped (treated as error) : 0
Edge jitter error (maybe fixed) : 0
Atom jitter error (maybe fixed) : 0
Drift error (maybe fixed) : 0
Dropped bytes error (maybe fixed) : 0
Duplicated bytes error (maybe fixed) : 0
Inconsistency in error sectors : 0

Track 10
Filename : /Volumes/HD 2/Saint Etienne - 2001 - Smash The System/CD1/10 - Avenue.flac

Track gain : -4.90 dB
Peak : 1.000000
CRC32 hash (test run) : E2FFE95F
CRC32 hash : E2FFE95F
CRC32 hash (skip zero) : ADE8DC78
AccurateRip signature : C7E1C5EF
->Accurately ripped! (confidence 11)
Statistics
Read error : 0
Skipped (treated as error) : 0
Edge jitter error (maybe fixed) : 0
Atom jitter error (maybe fixed) : 0
Drift error (maybe fixed) : 0
Dropped bytes error (maybe fixed) : 0
Duplicated bytes error (maybe fixed) : 0
Inconsistency in error sectors : 0

Track 11
Filename : /Volumes/HD 2/Saint Etienne - 2001 - Smash The System/CD1/11 - Mario's Cafe.flac

Track gain : -8.51 dB
Peak : 1.000000
CRC32 hash (test run) : A6948A61
CRC32 hash : A6948A61
CRC32 hash (skip zero) : 41DE3C86
AccurateRip signature : CB011A72
->Accurately ripped! (confidence 11)
Statistics
Read error : 0
Skipped (treated as error) : 0
Edge jitter error (maybe fixed) : 0
Atom jitter error (maybe fixed) : 0
Drift error (maybe fixed) : 0
Dropped bytes error (maybe fixed) : 0
Duplicated bytes error (maybe fixed) : 0
Inconsistency in error sectors : 0

Track 12
Filename : /Volumes/HD 2/Saint Etienne - 2001 - Smash The System/CD1/12 - You're In A Bad Way.flac

Track gain : -8.07 dB
Peak : 1.000000
CRC32 hash (test run) : 10E81229
CRC32 hash : 10E81229
CRC32 hash (skip zero) : 65E08960
AccurateRip signature : D10494B6
->Accurately ripped! (confidence 11)
Statistics
Read error : 0
Skipped (treated as error) : 0
Edge jitter error (maybe fixed) : 0
Atom jitter error (maybe fixed) : 0
Drift error (maybe fixed) : 0
Dropped bytes error (maybe fixed) : 0
Duplicated bytes error (maybe fixed) : 0
Inconsistency in error sectors : 0

Track 13
Filename : /Volumes/HD 2/Saint Etienne - 2001 - Smash The System/CD1/13 - Archway People.flac

Track gain : -5.95 dB
Peak : 1.000000
CRC32 hash (test run) : CFBD814E
CRC32 hash : CFBD814E
CRC32 hash (skip zero) : BB0EA37C
AccurateRip signature : 30F022E2
->Accurately ripped! (confidence 11)
Statistics
Read error : 0
Skipped (treated as error) : 0
Edge jitter error (maybe fixed) : 0
Atom jitter error (maybe fixed) : 0
Drift error (maybe fixed) : 0
Dropped bytes error (maybe fixed) : 0
Duplicated bytes error (maybe fixed) : 0
Inconsistency in error sectors : 0

Track 14
Filename : /Volumes/HD 2/Saint Etienne - 2001 - Smash The System/CD1/14 - Who Do You Think You Are.flac

Track gain : -8.63 dB
Peak : 1.000000
CRC32 hash (test run) : 79B284B9
CRC32 hash : 79B284B9
CRC32 hash (skip zero) : A0B48D91
AccurateRip signature : 5043AD33
->Accurately ripped! (confidence 11)
Statistics
Read error : 0
Skipped (treated as error) : 0
Edge jitter error (maybe fixed) : 0
Atom jitter error (maybe fixed) : 0
Drift error (maybe fixed) : 0
Dropped bytes error (maybe fixed) : 0
Duplicated bytes error (maybe fixed) : 0
Inconsistency in error sectors : 0

Track 15
Filename : /Volumes/HD 2/Saint Etienne - 2001 - Smash The System/CD1/15 - Hobart Paving.flac

Track gain : -7.59 dB
Peak : 1.000000
CRC32 hash (test run) : F7E2437B
CRC32 hash : F7E2437B
CRC32 hash (skip zero) : B6C1BD23
AccurateRip signature : 07D70E29
->Accurately ripped! (confidence 11)
Statistics
Read error : 0
Skipped (treated as error) : 0
Edge jitter error (maybe fixed) : 0
Atom jitter error (maybe fixed) : 0
Drift error (maybe fixed) : 0
Dropped bytes error (maybe fixed) : 0
Duplicated bytes error (maybe fixed) : 0
Inconsistency in error sectors : 0

Track 16
Filename : /Volumes/HD 2/Saint Etienne - 2001 - Smash The System/CD1/16 - Pale Movie.flac

Track gain : -7.21 dB
Peak : 1.000000
CRC32 hash (test run) : 27B2BCC5
CRC32 hash : 27B2BCC5
CRC32 hash (skip zero) : 7B418314
AccurateRip signature : 1C50FCFA
->Accurately ripped! (confidence 11)
Statistics
Read error : 0
Skipped (treated as error) : 0
Edge jitter error (maybe fixed) : 0
Atom jitter error (maybe fixed) : 0
Drift error (maybe fixed) : 0
Dropped bytes error (maybe fixed) : 0
Duplicated bytes error (maybe fixed) : 0
Inconsistency in error sectors : 0

Track 17
Filename : /Volumes/HD 2/Saint Etienne - 2001 - Smash The System/CD1/17 - Hug My Soul.flac

Track gain : -8.07 dB
Peak : 1.000000
CRC32 hash (test run) : 96B4B450
CRC32 hash : 96B4B450
CRC32 hash (skip zero) : 39ACB98D
AccurateRip signature : 16DC7A83
->Accurately ripped! (confidence 11)
Statistics
Read error : 0
Skipped (treated as error) : 0
Edge jitter error (maybe fixed) : 0
Atom jitter error (maybe fixed) : 0
Drift error (maybe fixed) : 0
Dropped bytes error (maybe fixed) : 0
Duplicated bytes error (maybe fixed) : 0
Inconsistency in error sectors : 0

No errors occurred

End of status report
X Lossless Decoder version 20100918 (122.1)

XLD extraction logfile from 2010-09-21 20:52:42 +0200

Saint Etienne / Smash The System Singles And More

Used drive : YAMAHA CRW-F1E (revision 1.0g)

Use cdparanoia mode : YES (CDParanoia III 10.2 engine)
Disable audio cache : OK for the drive with cache less than 2750KB
Make use of C2 pointers : NO
Read offset correction : 733
Max retry count : 100
Gap status : Analyzed, Appended

TOC of the extracted CD
Track | Start | Length | Start sector | End sector
---------------------------------------------------------
1 | 00:00:00 | 03:41:70 | 0 | 16644
2 | 03:41:70 | 05:39:40 | 16645 | 42109
3 | 09:21:35 | 03:09:30 | 42110 | 56314
4 | 12:30:65 | 04:08:07 | 56315 | 74921
5 | 16:38:72 | 04:09:38 | 74922 | 93634
6 | 20:48:35 | 04:19:45 | 93635 | 113104
7 | 25:08:05 | 03:32:62 | 113105 | 129066
8 | 28:40:67 | 04:12:70 | 129067 | 148036
9 | 32:53:62 | 04:01:10 | 148037 | 166121
10 | 36:54:72 | 04:03:65 | 166122 | 184411
11 | 40:58:62 | 04:00:10 | 184412 | 202421
12 | 44:58:72 | 04:21:43 | 202422 | 222039
13 | 49:20:40 | 03:57:02 | 222040 | 239816
14 | 53:17:42 | 04:37:45 | 239817 | 260636
15 | 57:55:12 | 04:21:25 | 260637 | 280236
16 | 62:16:37 | 03:20:50 | 280237 | 295286
17 | 65:37:12 | 05:32:40 | 295287 | 320226

List of alternate offset correction values
# | Absolute | Relative | Confidence
------------------------------------------
1 | 134 | -599 | 3

All Tracks
Album gain : -6.55 dB
Peak : 1.000000

Track 01
Filename : /Volumes/HD 2/Saint Etienne - 2001 - Smash The System/CD2/01 - Like A Motorway.flac
Pre-gap length : 00:02:00

Track gain : -5.44 dB
Peak : 1.000000
CRC32 hash (test run) : AB5C48F3
CRC32 hash : AB5C48F3
CRC32 hash (skip zero) : 35E5235D
AccurateRip signature : 0270500B
->Accurately ripped! (confidence 42)
Statistics
Read error : 0
Skipped (treated as error) : 0
Edge jitter error (maybe fixed) : 0
Atom jitter error (maybe fixed) : 0
Drift error (maybe fixed) : 0
Dropped bytes error (maybe fixed) : 0
Duplicated bytes error (maybe fixed) : 0
Inconsistency in error sectors : 0

Track 02
Filename : /Volumes/HD 2/Saint Etienne - 2001 - Smash The System/CD2/02 - Cool Kids Of Death.flac

Track gain : -0.95 dB
Peak : 1.000000
CRC32 hash (test run) : 3A78486B
CRC32 hash : 3A78486B
CRC32 hash (skip zero) : 5AA9B59A
AccurateRip signature : 37E9168C
->Accurately ripped! (confidence 42)
Statistics
Read error : 0
Skipped (treated as error) : 0
Edge jitter error (maybe fixed) : 0
Atom jitter error (maybe fixed) : 0
Drift error (maybe fixed) : 0
Dropped bytes error (maybe fixed) : 0
Duplicated bytes error (maybe fixed) : 0
Inconsistency in error sectors : 0

Track 03
Filename : /Volumes/HD 2/Saint Etienne - 2001 - Smash The System/CD2/03 - The Process.flac

Track gain : -3.38 dB
Peak : 1.000000
CRC32 hash (test run) : 83317CA3
CRC32 hash : 83317CA3
CRC32 hash (skip zero) : 9FA9CA2B
AccurateRip signature : 8919A381
->Accurately ripped! (confidence 40)
Statistics
Read error : 0
Skipped (treated as error) : 0
Edge jitter error (maybe fixed) : 0
Atom jitter error (maybe fixed) : 0
Drift error (maybe fixed) : 0
Dropped bytes error (maybe fixed) : 0
Duplicated bytes error (maybe fixed) : 0
Inconsistency in error sectors : 0

Track 04
Filename : /Volumes/HD 2/Saint Etienne - 2001 - Smash The System/CD2/04 - He's On The Phone.flac

Track gain : -7.04 dB
Peak : 1.000000
CRC32 hash (test run) : 5B7B3245
CRC32 hash : 5B7B3245
CRC32 hash (skip zero) : 955EFCA0
AccurateRip signature : A4168043
->Accurately ripped! (confidence 42)
Statistics
Read error : 0
Skipped (treated as error) : 0
Edge jitter error (maybe fixed) : 0
Atom jitter error (maybe fixed) : 0
Drift error (maybe fixed) : 0
Dropped bytes error (maybe fixed) : 0
Duplicated bytes error (maybe fixed) : 0
Inconsistency in error sectors : 0

Track 05
Filename : /Volumes/HD 2/Saint Etienne - 2001 - Smash The System/CD2/05 - Angel.flac

Track gain : -6.37 dB
Peak : 0.969269
CRC32 hash (test run) : 31BB9D67
CRC32 hash : 31BB9D67
CRC32 hash (skip zero) : 92359B75
AccurateRip signature : 60F9E71D
->Accurately ripped! (confidence 41)
Statistics
Read error : 0
Skipped (treated as error) : 0
Edge jitter error (maybe fixed) : 0
Atom jitter error (maybe fixed) : 0
Drift error (maybe fixed) : 0
Dropped bytes error (maybe fixed) : 0
Duplicated bytes error (maybe fixed) : 0
Inconsistency in error sectors : 0

Track 06
Filename : /Volumes/HD 2/Saint Etienne - 2001 - Smash The System/CD2/06 - Burnt Out Car.flac

Track gain : -6.48 dB
Peak : 0.999939
CRC32 hash (test run) : 118E970D
CRC32 hash : 118E970D
CRC32 hash (skip zero) : A3AAFDCE
AccurateRip signature : A131184C
->Accurately ripped! (confidence 40)
Statistics
Read error : 0
Skipped (treated as error) : 0
Edge jitter error (maybe fixed) : 0
Atom jitter error (maybe fixed) : 0
Drift error (maybe fixed) : 0
Dropped bytes error (maybe fixed) : 0
Duplicated bytes error (maybe fixed) : 0
Inconsistency in error sectors : 0

Track 07
Filename : /Volumes/HD 2/Saint Etienne - 2001 - Smash The System/CD2/07 - Shad Thames.flac

Track gain : -6.18 dB
Peak : 1.000000
CRC32 hash (test run) : BD01C2BE
CRC32 hash : BD01C2BE
CRC32 hash (skip zero) : E68BD06A
AccurateRip signature : 39296FBB
->Accurately ripped! (confidence 41)
Statistics
Read error : 0
Skipped (treated as error) : 0
Edge jitter error (maybe fixed) : 0
Atom jitter error (maybe fixed) : 0
Drift error (maybe fixed) : 0
Dropped bytes error (maybe fixed) : 0
Duplicated bytes error (maybe fixed) : 0
Inconsistency in error sectors : 0

Track 08
Filename : /Volumes/HD 2/Saint Etienne - 2001 - Smash The System/CD2/08 - Wood Cabin.flac

Track gain : -4.50 dB
Peak : 1.000000
CRC32 hash (test run) : A0C8D211
CRC32 hash : A0C8D211
CRC32 hash (skip zero) : D6818C75
AccurateRip signature : 97AF5401
->Accurately ripped! (confidence 40)
Statistics
Read error : 0
Skipped (treated as error) : 0
Edge jitter error (maybe fixed) : 0
Atom jitter error (maybe fixed) : 0
Drift error (maybe fixed) : 0
Dropped bytes error (maybe fixed) : 0
Duplicated bytes error (maybe fixed) : 0
Inconsistency in error sectors : 0

Track 09
Filename : /Volumes/HD 2/Saint Etienne - 2001 - Smash The System/CD2/09 - Sylvie.flac

Track gain : -6.50 dB
Peak : 1.000000
CRC32 hash (test run) : 32D13984
CRC32 hash : 32D13984
CRC32 hash (skip zero) : 409468EC
AccurateRip signature : 30671086
->Accurately ripped! (confidence 41)
Statistics
Read error : 0
Skipped (treated as error) : 0
Edge jitter error (maybe fixed) : 0
Atom jitter error (maybe fixed) : 0
Drift error (maybe fixed) : 0
Dropped bytes error (maybe fixed) : 0
Duplicated bytes error (maybe fixed) : 0
Inconsistency in error sectors : 0

Track 10
Filename : /Volumes/HD 2/Saint Etienne - 2001 - Smash The System/CD2/10 - Lose That Girl.flac

Track gain : -8.20 dB
Peak : 1.000000
CRC32 hash (test run) : FDDED1EA
CRC32 hash : FDDED1EA
CRC32 hash (skip zero) : 723CAAD9
AccurateRip signature : 82414ACD
->Accurately ripped! (confidence 41)
Statistics
Read error : 0
Skipped (treated as error) : 0
Edge jitter error (maybe fixed) : 0
Atom jitter error (maybe fixed) : 0
Drift error (maybe fixed) : 0
Dropped bytes error (maybe fixed) : 0
Duplicated bytes error (maybe fixed) : 0
Inconsistency in error sectors : 0

Track 11
Filename : /Volumes/HD 2/Saint Etienne - 2001 - Smash The System/CD2/11 - The Bad Photographer.flac

Track gain : -7.39 dB
Peak : 1.000000
CRC32 hash (test run) : 595B8577
CRC32 hash : 595B8577
CRC32 hash (skip zero) : D37B1B91
AccurateRip signature : AF333ADD
->Accurately ripped! (confidence 41)
Statistics
Read error : 0
Skipped (treated as error) : 0
Edge jitter error (maybe fixed) : 0
Atom jitter error (maybe fixed) : 0
Drift error (maybe fixed) : 0
Dropped bytes error (maybe fixed) : 0
Duplicated bytes error (maybe fixed) : 0
Inconsistency in error sectors : 0

Track 12
Filename : /Volumes/HD 2/Saint Etienne - 2001 - Smash The System/CD2/12 - Goodnight Jack.flac

Track gain : -7.59 dB
Peak : 0.999969
CRC32 hash (test run) : 084B27FA
CRC32 hash : 084B27FA
CRC32 hash (skip zero) : C03FCF28
AccurateRip signature : 7EFD0D45
->Accurately ripped! (confidence 40)
Statistics
Read error : 0
Skipped (treated as error) : 0
Edge jitter error (maybe fixed) : 0
Atom jitter error (maybe fixed) : 0
Drift error (maybe fixed) : 0
Dropped bytes error (maybe fixed) : 0
Duplicated bytes error (maybe fixed) : 0
Inconsistency in error sectors : 0

Track 13
Filename : /Volumes/HD 2/Saint Etienne - 2001 - Smash The System/CD2/13 - Madeleine.flac

Track gain : -1.68 dB
Peak : 0.690033
CRC32 hash (test run) : DB6BFAE4
CRC32 hash : DB6BFAE4
CRC32 hash (skip zero) : BEF1B9B3
AccurateRip signature : B98D6618
->Accurately ripped! (confidence 40)
Statistics
Read error : 0
Skipped (treated as error) : 0
Edge jitter error (maybe fixed) : 0
Atom jitter error (maybe fixed) : 0
Drift error (maybe fixed) : 0
Dropped bytes error (maybe fixed) : 0
Duplicated bytes error (maybe fixed) : 0
Inconsistency in error sectors : 0

Track 14
Filename : /Volumes/HD 2/Saint Etienne - 2001 - Smash The System/CD2/14 - 4 35 In The Morning.flac

Track gain : -6.09 dB
Peak : 1.000000
CRC32 hash (test run) : DCB2A858
CRC32 hash : DCB2A858
CRC32 hash (skip zero) : 2486526E
AccurateRip signature : 0CFCB33C
->Accurately ripped! (confidence 41)
Statistics
Read error : 0
Skipped (treated as error) : 0
Edge jitter error (maybe fixed) : 0
Atom jitter error (maybe fixed) : 0
Drift error (maybe fixed) : 0
Dropped bytes error (maybe fixed) : 0
Duplicated bytes error (maybe fixed) : 0
Inconsistency in error sectors : 0

Track 15
Filename : /Volumes/HD 2/Saint Etienne - 2001 - Smash The System/CD2/15 - Jack Lemmon.flac

Track gain : -5.72 dB
Peak : 1.000000
CRC32 hash (test run) : 0296B8D3
CRC32 hash : 0296B8D3
CRC32 hash (skip zero) : E31D537A
AccurateRip signature : EE32B976
->Accurately ripped! (confidence 40)
Statistics
Read error : 0
Skipped (treated as error) : 0
Edge jitter error (maybe fixed) : 0
Atom jitter error (maybe fixed) : 0
Drift error (maybe fixed) : 0
Dropped bytes error (maybe fixed) : 0
Duplicated bytes error (maybe fixed) : 0
Inconsistency in error sectors : 0

Track 16
Filename : /Volumes/HD 2/Saint Etienne - 2001 - Smash The System/CD2/16 - Saturday.flac

Track gain : -6.74 dB
Peak : 1.000000
CRC32 hash (test run) : C118EADD
CRC32 hash : C118EADD
CRC32 hash (skip zero) : D7608D23
AccurateRip signature : BFCFB6EF
->Accurately ripped! (confidence 38)
Statistics
Read error : 0
Skipped (treated as error) : 0
Edge jitter error (maybe fixed) : 0
Atom jitter error (maybe fixed) : 0
Drift error (maybe fixed) : 0
Dropped bytes error (maybe fixed) : 0
Duplicated bytes error (maybe fixed) : 0
Inconsistency in error sectors : 0

Track 17
Filename : /Volumes/HD 2/Saint Etienne - 2001 - Smash The System/CD2/17 - 52 Pilot.flac

Track gain : -1.08 dB
Peak : 1.000000
CRC32 hash (test run) : D5792104
CRC32 hash : D5792104
CRC32 hash (skip zero) : 9CBA43F2
AccurateRip signature : 9BA4EACD
->Accurately ripped! (confidence 40)
Statistics
Read error : 0
Skipped (treated as error) : 0
Edge jitter error (maybe fixed) : 0
Atom jitter error (maybe fixed) : 0
Drift error (maybe fixed) : 0
Dropped bytes error (maybe fixed) : 0
Duplicated bytes error (maybe fixed) : 0
Inconsistency in error sectors : 0

No errors occurred

End of status report


Трекер:  [ 06-Май-2012 14:49 ]

  

Скачать .torrent

Размер .torrent файла 21 KB


Размер: 987 MB
Хэш (hash) релиза: fcaa3dd382a5a295fb822dd7e42ee1524edf6616

Еще никто не оставлял запись к записи скачать торрент Saint Etienne - Smash the System: Singles and More - 2001 ALAC, lossless . Будь первым!

!Обратная связь