Скачать через торрент Suicidal Romance - Дискография - 2007-2010 ALAC, lossless бесплатно русская версия torrent активатор

Если у вас наблюдаются проблемы со скриншотами, переходом по ссылками, скачиванием торрентов - проблемы в блокировщике рекламы AdBlock. #хорошегоДня!


Статистика раздачи
Размер:  1.21 GB   |    Зарегистрирован:  5 лет 5 месяцев   |    .torrent скачан:  43 раза   |   
Раздают:  1  
   
Загрузка...
 
Автор Сообщение

Galfimbul

avatar Galfimbul




Страна: Estonia ll Год: 2007-2010 ll Жанр: Gothic Electro ll Продолжительность: 2,7 часа ll Тексты: вшиты 60% ll Обложки: вшиты
Кодек: ALAC ll Программа-риповщик : foobar2000 + iTunes (lossless) ll Битрейт: lossless
О группе: Группа из Таллина (Эстония), которая сформировалась в 2004-м году, чтобы взойти на мировую Gothic Electro сцену, на которой уже давно не зажигалось новых "звезд". Сейчас группа состоит из трех человек: лидер группы Dmitry (вокал, лирика, программинг), Viktoria (вокал), Maarja (клавиши, визуальная концепция). Благодаря удачному сплаву gothic, darkwave, romantic pop, современным электронным аранжировкам и ярким мелодиям, а также стильному готическому имиджу Dmitry, Viktoria и Maarja, группа встретила самый теплый отклик в сердцах немецких поклонников темной романтики.
Треклист
01. Love Beyond Reach
02. Not Alone
03. Will It Be (For Us)
04. Call Me
05. Angel Of Love
06. White Snow
07. Poisoned Kiss
08. Lonely Tears
09. Prince Of The Darkness
10. Star
11. In This Night
12. Not Alone (BlutEngel Remix)
13. Star (Lost Area Remix)
  
Exact Audio Copy V0.99 prebeta 3 from 28. July 2007

Отчёт EAC об извлечении, выполненном 22. сентября 2010, 19:48

Suicidal Romance / Love Beyound Reach

Дисковод: TEAC DW-548D Adapter: 1 ID: 1

Режим чтения : ДостоверностьИспользование точного потока : ДаОтключение кэша аудио : ДаИспользование указателей C2 : Нет

Коррекция смещения при чтении : 6Способность читать области Lead-in и Lead-out : НетЗаполнение пропущенных сэмплов тишиной : ДаУдаление блоков с тишиной в начале и конце : НетПри вычислениях CRC использовались нулевые сэмплы : ДаИнтерфейс : Установленный внешний ASPI-интерфейс

Выходной формат : Пользовательский кодировщикВыбранный битрейт : 768 kBit/sКачество : ВысокийДобавление ID3-тэга : НетУтилита сжатия : C:\Program Files\Exact Audio Copy\FLAC\FLAC.EXEДополнительные параметры : -6 -V -T "ARTIST=%a" -T "TITLE=%t" -T "ALBUM=%g" -T "DATE=%y" -T "TRACKNUMBER=%n" -T "GENRE=%m" -T "COMMENT=%e" %s -o %d

TOC извлечённого CD

Трек | Старт | Длительность | Начальный сектор | Конечный сектор --------------------------------------------------------------------- 1 | 0:00.00 | 1:02.00 | 0 | 4649 2 | 1:02.00 | 4:51.35 | 4650 | 26509 3 | 5:53.35 | 5:05.32 | 26510 | 49416 4 | 10:58.67 | 3:35.43 | 49417 | 65584 5 | 14:34.35 | 5:54.29 | 65585 | 92163 6 | 20:28.64 | 5:17.04 | 92164 | 115942 7 | 25:45.68 | 4:21.56 | 115943 | 135573 8 | 30:07.49 | 3:48.13 | 135574 | 152686 9 | 33:55.62 | 4:53.56 | 152687 | 174717 10 | 38:49.43 | 5:33.02 | 174718 | 199694 11 | 44:22.45 | 3:37.05 | 199695 | 215974 12 | 47:59.50 | 4:42.32 | 215975 | 237156 13 | 52:42.07 | 4:48.00 | 237157 | 258756

Характеристики диапазона извлечения и сообщения об ошибках

Выбранный диапазон

Имя файла D:\Раздача\Suicidal Romance -2007-Love Beyond Reach\Suicidal Romance - Love Beyound Reach.wav

Пиковый уровень 99.9 % Качество диапазона 100.0 % CRC копии BCD1916E Копирование... OK

Ошибок не произошло

AccurateRip: сводка

Трек 1 точное извлечение (доверие 2) [EAC2EA52]Трек 2 точное извлечение (доверие 2) [40702B86]Трек 3 точное извлечение (доверие 2) [F9FCE83E]Трек 4 точное извлечение (доверие 2) [A287FE7E]Трек 5 точное извлечение (доверие 2) [90411D49]Трек 6 точное извлечение (доверие 2) [2FB70F45]Трек 7 точное извлечение (доверие 2) [EE20EC54]Трек 8 точное извлечение (доверие 2) [D010EBB3]Трек 9 точное извлечение (доверие 2) [77DEAADD]Трек 10 точное извлечение (доверие 2) [6AA41F39]Трек 11 точное извлечение (доверие 2) [F926B11A]Трек 12 точное извлечение (доверие 2) [2B11F671]Трек 13 точное извлечение (доверие 2) [6CBB8185]

Все треки извлечены точно

Конец отчёта
01. Interlude
02. Touch
03. Words That Change Everything
04. Make Me Blind
05. Love Stays The Same
06. Her Song
07. We're Wanting More
08. Dreamers
09. Build Me A Heart
10. S.H.R.
11. Make Me Blind (Studio-X Hard Dance Remix)
12. Love Stays The Same (XP8 Remix)
13. Her Song (Helalyn Flowers Remix)
14. Make Me Blind (FGFC820 Remix)
  
Exact Audio Copy V0.99 prebeta 5 from 4. May 2009

Отчёт EAC об извлечении, выполненном 1. сентября 2010, 9:06

Suicidal Romance / Shattered Heart Reflections [Japanese Edition]

Дисковод: Optiarc DVD RW AD-7173A Adapter: 0 ID: 0

Режим чтения : ДостоверностьИспользование точного потока : ДаОтключение кэша аудио : ДаИспользование указателей C2 : Нет

Коррекция смещения при чтении : 48Способность читать области Lead-in и Lead-out : НетЗаполнение пропущенных сэмплов тишиной : ДаУдаление блоков с тишиной в начале и конце : НетПри вычислениях CRC использовались нулевые сэмплы : ДаИнтерфейс : Установленный внешний ASPI-интерфейс

Выходной формат : Пользовательский кодировщикВыбранный битрейт : 1024 kBit/sКачество : ВысокийДобавление ID3-тэга : НетУтилита сжатия : C:\Program Files\Exact Audio Copy\flac.exeДополнительные параметры : -6 -V -T "ARTIST=%a" -T "TITLE=%t" -T "ALBUM=%g" -T "DATE=%y" -T "TRACKNUMBER=%n" -T "GENRE=%m" -T "COMMENT=%e" %s -o %d

TOC извлечённого CD

Трек | Старт | Длительность | Начальный сектор | Конечный сектор --------------------------------------------------------------------- 1 | 0:00.00 | 0:22.69 | 0 | 1718 2 | 0:22.69 | 4:22.11 | 1719 | 21379 3 | 4:45.05 | 5:02.27 | 21380 | 44056 4 | 9:47.32 | 4:57.22 | 44057 | 66353 5 | 14:44.54 | 4:45.63 | 66354 | 87791 6 | 19:30.42 | 4:27.36 | 87792 | 107852 7 | 23:58.03 | 4:37.49 | 107853 | 128676 8 | 28:35.52 | 4:35.21 | 128677 | 149322 9 | 33:10.73 | 5:07.18 | 149323 | 172365 10 | 38:18.16 | 4:13.54 | 172366 | 191394 11 | 42:31.70 | 6:26.56 | 191395 | 220400 12 | 48:58.51 | 4:09.25 | 220401 | 239100 13 | 53:08.01 | 6:28.41 | 239101 | 268241 14 | 59:36.42 | 5:04.55 | 268242 | 291096

Характеристики диапазона извлечения и сообщения об ошибках

Выбранный диапазон

Имя файла H:\СКАЧКА\FLAC\1 TORRENT\Suicidal Romance - Shattered Heart Reflections [Japanese Edition].wav

Пиковый уровень 94.5 % Качество диапазона 99.9 % CRC теста E251E70C CRC копии E251E70C Копирование... OK

Ошибок не произошло

AccurateRip: сводка

Трек 1 точное извлечение (доверие 1) [E65392DF]Трек 2 точное извлечение (доверие 1) [A25A762B]Трек 3 точное извлечение (доверие 1) [462BA0F7]Трек 4 точное извлечение (доверие 1) [DE2A1D86]Трек 5 точное извлечение (доверие 1) [DA6C96A7]Трек 6 нет в базе данныхТрек 7 точное извлечение (доверие 1) [26D9A698]Трек 8 точное извлечение (доверие 1) [85BD73E9]Трек 9 точное извлечение (доверие 1) [B3048D41]Трек 10 точное извлечение (доверие 1) [DB4C6A30]Трек 11 точное извлечение (доверие 1) [D9D61470]Трек 12 точное извлечение (доверие 1) [ED46FAAD]Трек 13 точное извлечение (доверие 1) [828748BB]Трек 14 точное извлечение (доверие 1) [753BCF65]

13 трек(и) скопированы точно 1 трек(и) не содержатся в базе AccurateRip

Некоторые треки не прошли проверку на точность

Конец отчёта
[spoiler=(2011) Memories Behind Closed Curtains]
01. Love Will Have Her Revenge
02. Whisper Goodbye
03. Slave Slave (Feat.Pete Crane)
04. Hold Me
05. Don't Go
06. Ecstatic (Feat. Felix Marc)
07. One Love
08. Forever as One
09. Amour Amor (Feat. VVA)
10. Behind Closed Curtains
  
X Lossless Decoder version 20111214 (138.1)

XLD extraction logfile from 2012-01-16 16:22:17 +0000

Suicidal Romance / Memories Behind Closed Curtains

Used drive : YAMAHA CRW-F1E (revision 1.0g)

Ripper mode : XLD Secure RipperDisable audio cache : OK for the drive with a cache less than 1375KiBMake use of C2 pointers : NORead offset correction : 733Max retry count : 100Gap status : Analyzed, Appended

TOC of the extracted CD Track | Start | Length | Start sector | End sector --------------------------------------------------------- 1 | 00:00:00 | 01:35:34 | 0 | 7158 2 | 01:35:34 | 04:57:54 | 7159 | 29487 3 | 06:33:13 | 05:07:21 | 29488 | 52533 4 | 11:40:34 | 04:56:24 | 52534 | 74757 5 | 16:36:58 | 01:12:18 | 74758 | 80175 6 | 17:49:01 | 04:13:68 | 80176 | 99218 7 | 22:02:69 | 04:44:53 | 99219 | 120571 8 | 26:47:47 | 04:34:21 | 120572 | 141142 9 | 31:21:68 | 05:01:40 | 141143 | 163757 10 | 36:23:33 | 03:56:42 | 163758 | 181499

AccurateRip Summary Disc not found in AccurateRip DB.

All Tracks Album gain : -9.67 dB Peak : 0.980469 Statistics Read error : 0 Jitter error (maybe fixed) : 0 Retry sector count : 0 Damaged sector count : 0

Track 01 Filename : /Volumes/HD 2/Suicidal Romance - 2011 - Memories Behind Closed Curtains/01 - Suicidal Romance - 2011 - Love Will Have Her Revenge.flac Pre-gap length : 00:02:00

Track gain : -10.21 dB Peak : 0.980469 CRC32 hash (test run) : F26264C0 CRC32 hash : F26264C0 CRC32 hash (skip zero) : 3BF9E6C5 AccurateRip signature : C06B34E8 ->Track not present in AccurateRip database. Statistics Read error : 0 Jitter error (maybe fixed) : 0 Retry sector count : 0 Damaged sector count : 0

Track 02 Filename : /Volumes/HD 2/Suicidal Romance - 2011 - Memories Behind Closed Curtains/02 - Suicidal Romance - 2011 - Whisper Goodbye.flac Pre-gap length : 00:01:28

Track gain : -8.69 dB Peak : 0.980469 CRC32 hash (test run) : 7A89B994 CRC32 hash : 7A89B994 CRC32 hash (skip zero) : F06CFBCC AccurateRip signature : 07A00C1C ->Track not present in AccurateRip database. Statistics Read error : 0 Jitter error (maybe fixed) : 0 Retry sector count : 0 Damaged sector count : 0

Track 03 Filename : /Volumes/HD 2/Suicidal Romance - 2011 - Memories Behind Closed Curtains/03 - Suicidal Romance - 2011 - Slave Slave (feat. Pete Cran).flac Pre-gap length : 00:01:31

Track gain : -8.66 dB Peak : 0.980469 CRC32 hash (test run) : 80DFFB87 CRC32 hash : 80DFFB87 CRC32 hash (skip zero) : 1245ED69 AccurateRip signature : F1BAE217 ->Track not present in AccurateRip database. Statistics Read error : 0 Jitter error (maybe fixed) : 0 Retry sector count : 0 Damaged sector count : 0

Track 04 Filename : /Volumes/HD 2/Suicidal Romance - 2011 - Memories Behind Closed Curtains/04 - Suicidal Romance - 2011 - Hold Me.flac Pre-gap length : 00:01:22

Track gain : -10.32 dB Peak : 0.980469 CRC32 hash (test run) : 97A82115 CRC32 hash : 97A82115 CRC32 hash (skip zero) : 6829558F AccurateRip signature : 3F89FBBE ->Track not present in AccurateRip database. Statistics Read error : 0 Jitter error (maybe fixed) : 0 Retry sector count : 0 Damaged sector count : 0

Track 05 Filename : /Volumes/HD 2/Suicidal Romance - 2011 - Memories Behind Closed Curtains/05 - Suicidal Romance - 2011 - Don't Go.flac Pre-gap length : 00:01:12

Track gain : -8.62 dB Peak : 0.980469 CRC32 hash (test run) : ECCB4CF5 CRC32 hash : ECCB4CF5 CRC32 hash (skip zero) : 3B87ABE3 AccurateRip signature : 55CAF9FE ->Track not present in AccurateRip database. Statistics Read error : 0 Jitter error (maybe fixed) : 0 Retry sector count : 0 Damaged sector count : 0

Track 06 Filename : /Volumes/HD 2/Suicidal Romance - 2011 - Memories Behind Closed Curtains/06 - Suicidal Romance - 2011 - Ecstatic (feat. Felix Marc).flac Pre-gap length : 00:01:34

Track gain : -9.27 dB Peak : 0.980469 CRC32 hash (test run) : 1909750E CRC32 hash : 1909750E CRC32 hash (skip zero) : 85E050AD AccurateRip signature : E89BA718 ->Track not present in AccurateRip database. Statistics Read error : 0 Jitter error (maybe fixed) : 0 Retry sector count : 0 Damaged sector count : 0

Track 07 Filename : /Volumes/HD 2/Suicidal Romance - 2011 - Memories Behind Closed Curtains/07 - Suicidal Romance - 2011 - One Love.flac Pre-gap length : 00:01:43

Track gain : -9.75 dB Peak : 0.980469 CRC32 hash (test run) : 93444889 CRC32 hash : 93444889 CRC32 hash (skip zero) : 9D5E416B AccurateRip signature : 8F645520 ->Track not present in AccurateRip database. Statistics Read error : 0 Jitter error (maybe fixed) : 0 Retry sector count : 0 Damaged sector count : 0

Track 08 Filename : /Volumes/HD 2/Suicidal Romance - 2011 - Memories Behind Closed Curtains/08 - Suicidal Romance - 2011 - Forever As One.flac Pre-gap length : 00:01:26

Track gain : -9.93 dB Peak : 0.980469 CRC32 hash (test run) : 07E394C3 CRC32 hash : 07E394C3 CRC32 hash (skip zero) : 968A8949 AccurateRip signature : 80292DFA ->Track not present in AccurateRip database. Statistics Read error : 0 Jitter error (maybe fixed) : 0 Retry sector count : 0 Damaged sector count : 0

Track 09 Filename : /Volumes/HD 2/Suicidal Romance - 2011 - Memories Behind Closed Curtains/09 - Suicidal Romance - 2011 - Amour Amor (feat. VVA).flac Pre-gap length : 00:01:29

Track gain : -9.96 dB Peak : 0.980469 CRC32 hash (test run) : B2C6FF18 CRC32 hash : B2C6FF18 CRC32 hash (skip zero) : CE2E4DB0 AccurateRip signature : AF344B4D ->Track not present in AccurateRip database. Statistics Read error : 0 Jitter error (maybe fixed) : 0 Retry sector count : 0 Damaged sector count : 0

Track 10 Filename : /Volumes/HD 2/Suicidal Romance - 2011 - Memories Behind Closed Curtains/10 - Suicidal Romance - 2011 - Behind Closed Curtains.flac

Track gain : -8.39 dB Peak : 0.980469 CRC32 hash (test run) : 7CB1C969 CRC32 hash : 7CB1C969 CRC32 hash (skip zero) : 9CE7EB4F AccurateRip signature : 1B4975DA ->Track not present in AccurateRip database. Statistics Read error : 0 Jitter error (maybe fixed) : 0 Retry sector count : 0 Damaged sector count : 0

No errors occurred

End of status report


Трекер:  [ 06-Май-2012 14:49 ]

  

Скачать .torrent

Размер .torrent файла 16 KB


Размер: 1.21 GB
Хэш (hash) релиза: f7a826dfd37a37b597b5395c26fed8085449469a

Еще никто не оставлял запись к записи скачать торрент Suicidal Romance - Дискография - 2007-2010 ALAC, lossless . Будь первым!

!Обратная связь