Скачать через торрент Isaac Shepard - Deep Joy - 2008 ALAC, lossless бесплатно русская версия torrent активатор

Если у вас наблюдаются проблемы со скриншотами, переходом по ссылками, скачиванием торрентов - проблемы в блокировщике рекламы AdBlock. #хорошегоДня!


Статистика раздачи
Размер:  157 MB   |    Зарегистрирован:  5 лет 5 месяцев   |    .torrent скачан:  34 раза   |   
Раздают:  1  
   
Загрузка...
 
Автор Сообщение

Galfimbul

avatar Galfimbul


Isaac Shepard - Deep Joy

Год: 2008
Страна-производитель диска: USA
Жанр: Piano
Продолжительность: 43:23
Тексты: не требуются
Кодек: ALAC
Программа-риповщик : foobar2000 + iTunes
Битрейт: lossless

Треклист:

01. Gentle (4:34)
02. Letting Go (3:00)
03. Triumph of Love (3:22)
04. Softly, Sweetly (3:16)
05. Romance of the Seas (3:120
06. Struggles (3:58)
07. Felicity (3:50)
08. Facing the Mirror (5:09)
09. Back to Basics (2:09)
10. Leaves in the Wind (3:38)
11. Fleeting Moments (3:30)
12. Evening Chat (4:03)
  
Exact Audio Copy V0.99 prebeta 5 from 4. May 2009

EAC extraction logfile from 14. August 2009, 18:28

Isaac Shepard / Deep Joy

Used drive : TSSTcorpCDDVDW SH-S203B Adapter: 2 ID: 0

Read mode : SecureUtilize accurate stream : YesDefeat audio cache : YesMake use of C2 pointers : No

Read offset correction : 6Overread into Lead-In and Lead-Out : NoFill up missing offset samples with silence : YesDelete leading and trailing silent blocks : NoNull samples used in CRC calculations : NoUsed interface : Native Win32 interface for Win NT & 2000Gap handling : Appended to previous track

Used output format : User Defined EncoderSelected bitrate : 192 kBit/sQuality : HighAdd ID3 tag : NoCommand line compressor : C:\Program Files\FLAC\flac.exeAdditional command line options : -V -8 -T "artist=%a" -T "title=%t" -T "album=%g" -T "date=%y" -T "tracknumber=%n" -T "genre=%m" %s

TOC of the extracted CD

Track | Start | Length | Start sector | End sector---------------------------------------------------------1 | 0:00.00 | 4:32.00 | 0 | 203992 | 4:32.00 | 2:57.74 | 20400 | 337483 | 7:29.74 | 3:20.55 | 33749 | 488034 | 10:50.54 | 3:14.14 | 48804 | 633675 | 14:04.68 | 3:10.36 | 63368 | 776536 | 17:15.29 | 3:56.31 | 77654 | 953847 | 21:11.60 | 3:48.43 | 95385 | 1125278 | 25:00.28 | 5:07.08 | 112528 | 1355609 | 30:07.36 | 2:07.16 | 135561 | 14510110 | 32:14.52 | 3:36.72 | 145102 | 16137311 | 35:51.49 | 3:28.70 | 161374 | 17704312 | 39:20.44 | 4:03.00 | 177044 | 195268

Track 1

Filename C:\Users\Joe\Desktop\Isaac Shepard - Deep Joy\Isaac Shepard - Deep Joy - 01 - Gentle.wav

Pre-gap length 0:00:02.00

Peak level 94.4 %Track quality 100.0 %Test CRC DB8401DDCopy CRC DB8401DDTrack not present in AccurateRip databaseCopy OK

Track 2

Filename C:\Users\Joe\Desktop\Isaac Shepard - Deep Joy\Isaac Shepard - Deep Joy - 02 - Letting Go.wav

Peak level 58.4 %Track quality 99.9 %Test CRC 3663678CCopy CRC 3663678CTrack not present in AccurateRip databaseCopy OK

Track 3

Filename C:\Users\Joe\Desktop\Isaac Shepard - Deep Joy\Isaac Shepard - Deep Joy - 03 - Triumph of Love.wav

Peak level 94.4 %Track quality 100.0 %Test CRC 72619D34Copy CRC 72619D34Track not present in AccurateRip databaseCopy OK

Track 4

Filename C:\Users\Joe\Desktop\Isaac Shepard - Deep Joy\Isaac Shepard - Deep Joy - 04 - Softly, Sweetly.wav

Peak level 58.4 %Track quality 100.0 %Test CRC 470ABEF3Copy CRC 470ABEF3Track not present in AccurateRip databaseCopy OK

Track 5

Filename C:\Users\Joe\Desktop\Isaac Shepard - Deep Joy\Isaac Shepard - Deep Joy - 05 - Romance of the Seas.wav

Peak level 94.4 %Track quality 100.0 %Test CRC 9CBB1662Copy CRC 9CBB1662Track not present in AccurateRip databaseCopy OK

Track 6

Filename C:\Users\Joe\Desktop\Isaac Shepard - Deep Joy\Isaac Shepard - Deep Joy - 06 - Struggles.wav

Peak level 94.4 %Track quality 99.9 %Test CRC 3E015F00Copy CRC 3E015F00Track not present in AccurateRip databaseCopy OK

Track 7

Filename C:\Users\Joe\Desktop\Isaac Shepard - Deep Joy\Isaac Shepard - Deep Joy - 07 - Felicity.wav

Peak level 64.3 %Track quality 100.0 %Test CRC D07E7359Copy CRC D07E7359Track not present in AccurateRip databaseCopy OK

Track 8

Filename C:\Users\Joe\Desktop\Isaac Shepard - Deep Joy\Isaac Shepard - Deep Joy - 08 - Facing the Mirror.wav

Peak level 58.7 %Track quality 100.0 %Test CRC 0A97CB2ECopy CRC 0A97CB2ETrack not present in AccurateRip databaseCopy OK

Track 9

Filename C:\Users\Joe\Desktop\Isaac Shepard - Deep Joy\Isaac Shepard - Deep Joy - 09 - Back to Basics.wav

Peak level 94.4 %Track quality 100.0 %Test CRC BE3622F2Copy CRC BE3622F2Track not present in AccurateRip databaseCopy OK

Track 10

Filename C:\Users\Joe\Desktop\Isaac Shepard - Deep Joy\Isaac Shepard - Deep Joy - 10 - Leaving in the Wind.wav

Peak level 94.4 %Track quality 100.0 %Test CRC 8636DA4ACopy CRC 8636DA4ATrack not present in AccurateRip databaseCopy OK

Track 11

Filename C:\Users\Joe\Desktop\Isaac Shepard - Deep Joy\Isaac Shepard - Deep Joy - 11 - Fleeting Moments.wav

Peak level 94.4 %Track quality 100.0 %Test CRC DD017F7BCopy CRC DD017F7BTrack not present in AccurateRip databaseCopy OK

Track 12

Filename C:\Users\Joe\Desktop\Isaac Shepard - Deep Joy\Isaac Shepard - Deep Joy - 12 - Evening Chat.wav

Peak level 58.4 %Track quality 100.0 %Test CRC CF5275FDCopy CRC CF5275FDTrack not present in AccurateRip databaseCopy OK

None of the tracks are present in the AccurateRip database

No errors occurred

End of status report
auCDtect: CD records authenticity detector, version 0.8.2
Copyright (c) 2004 Oleg Berngardt. All rights reserved.
Copyright (c) 2004 Alexander Djourik. All rights reserved.

mode: 0

===========================================
Track: 01 - Gentle
Quality: MPEG 100%
===========================================
Track: 12 - Evening Chat
Quality: MPEG 93%
===========================================
Track: 09 - Back to Basics
Quality: MPEG 100%
===========================================
Track: 05 - Romance of the Seas
Quality: MPEG 91%
===========================================
Track: 06 - Struggles
Quality: MPEG 100%
===========================================
Track: 04 - Softly, Sweetly
Quality: MPEG 100%
===========================================
Track: 03 - Triumph of Love
Quality: MPEG 100%
===========================================
Track: 07 - Felicity
Quality: MPEG 99%
===========================================
Track: 11 - Fleeting Moments
Quality: MPEG 93%
===========================================
Track: 10 - Leaving in the Wind
Quality: MPEG 89%
===========================================
Track: 02 - Letting Go
Quality: MPEG 100%
===========================================
Track: 08 - Facing the Mirror
Quality: MPEG 93%
===========================================[/pre]


Трекер:  [ 06-Май-2012 14:30 ]

  

Скачать .torrent

Размер .torrent файла 13 KB


Размер: 157 MB
Хэш (hash) релиза: 8882c93f9e520907434174c9606d32efd6977dbb

Еще никто не оставлял запись к записи скачать торрент Isaac Shepard - Deep Joy - 2008 ALAC, lossless . Будь первым!

!Обратная связь