Скачать через торрент Orbital - Blue album - 2004 бесплатно русская версия torrent активатор

Если у вас наблюдаются проблемы со скриншотами, переходом по ссылками, скачиванием торрентов - проблемы в блокировщике рекламы AdBlock. #хорошегоДня!


Статистика раздачи
Размер:  372 MB   |    Зарегистрирован:  5 лет 5 месяцев   |    .torrent скачан:  30 раз   |   
Раздают:  1  
   
Загрузка...
 
Автор Сообщение

Galfimbul

avatar Galfimbul


Orbital
Blue
album
Год: 2004
Страна: Англия
Жанр: Electronic
Тип издания: оригинал
Наличие сканов в содержимом раздачи: да
Продолжительность: 51,9 минут

Тексты: не требуются
Кодек: ALAC
Программа-риповщик : foobar2000 + iTunes (lossless)
Битрейт: lossless
Треклист:
01 Transient (5:48)
02 Pants (5:45)
03 Tunnel Vision (4:27)
04 Lost (5:08)
05 You Lot (7:08)
06 Bath Time (4:18)
07 Acid Pants (6:31)
08 Easy Serv (4:09)
09 One Perfect Sunrise (8:45)
  
Exact Audio Copy V0.99 prebeta 4 from 23. January 2008

EAC extraction logfile from 14. December 2008, 12:57

Orbital / Blue Album

Used drive : PIONEER DVD-RW DVR-212 Adapter: 0 ID: 1

Read mode : SecureUtilize accurate stream : YesDefeat audio cache : YesMake use of C2 pointers : No

Read offset correction : 48Overread into Lead-In and Lead-Out : NoFill up missing offset samples with silence : YesDelete leading and trailing silent blocks : NoNull samples used in CRC calculations : YesUsed interface : Native Win32 interface for Win NT & 2000Gap handling : Appended to previous track

Used output format : User Defined EncoderSelected bitrate : 1024 kBit/sQuality : HighAdd ID3 tag : NoCommand line compressor : C:\Program Files\foobar2000\flac-1.2.1-win\bin\flac.exeAdditional command line options : -V -8 -T "artist=%a" -T "title=%t" -T "album=%g" -T "date=%y" -T "tracknumber=%n" -T "genre=%m" %s

TOC of the extracted CD

Track | Start | Length | Start sector | End sector --------------------------------------------------------- 1 | 0:00.00 | 5:48.18 | 0 | 26117 2 | 5:48.18 | 5:44.60 | 26118 | 51977 3 | 11:33.03 | 4:27.05 | 51978 | 72007 4 | 16:00.08 | 5:08.00 | 72008 | 95107 5 | 21:08.08 | 7:08.20 | 95108 | 127227 6 | 28:16.28 | 4:18.25 | 127228 | 146602 7 | 32:34.53 | 6:30.55 | 146603 | 175907 8 | 39:05.33 | 4:08.57 | 175908 | 194564 9 | 43:14.15 | 8:44.65 | 194565 | 233929

Track 1

Filename C:\Documents and Settings\Hiekka\Рабочий стол\eac rips\orbital\bluealbum\01 - Transient.wav

Pre-gap length 0:00:02.00

Peak level 98.0 % Track quality 100.0 % Test CRC 8F650D73 Copy CRC 8F650D73 Accurately ripped (confidence 38) [BDA5D456] Copy OK

Track 2

Filename C:\Documents and Settings\Hiekka\Рабочий стол\eac rips\orbital\bluealbum\02 - Pants.wav

Peak level 98.0 % Track quality 100.0 % Test CRC A047C2C5 Copy CRC A047C2C5 Accurately ripped (confidence 36) [94020229] Copy OK

Track 3

Filename C:\Documents and Settings\Hiekka\Рабочий стол\eac rips\orbital\bluealbum\03 - Tunnel Vision.wav

Peak level 98.0 % Track quality 100.0 % Test CRC 204337CB Copy CRC 204337CB Accurately ripped (confidence 37) [331EEEC6] Copy OK

Track 4

Filename C:\Documents and Settings\Hiekka\Рабочий стол\eac rips\orbital\bluealbum\04 - Lost.wav

Pre-gap length 0:00:01.50

Peak level 98.0 % Track quality 100.0 % Test CRC C58BCCC9 Copy CRC C58BCCC9 Accurately ripped (confidence 36) [EA0A977D] Copy OK

Track 5

Filename C:\Documents and Settings\Hiekka\Рабочий стол\eac rips\orbital\bluealbum\05 - You Lot.wav

Peak level 98.0 % Track quality 100.0 % Test CRC 541C13C5 Copy CRC 541C13C5 Accurately ripped (confidence 37) [0408B2B3] Copy OK

Track 6

Filename C:\Documents and Settings\Hiekka\Рабочий стол\eac rips\orbital\bluealbum\06 - Bath Time.wav

Pre-gap length 0:00:01.66

Peak level 98.0 % Track quality 99.9 % Test CRC 62F57007 Copy CRC 62F57007 Accurately ripped (confidence 36) [AADEC9B6] Copy OK

Track 7

Filename C:\Documents and Settings\Hiekka\Рабочий стол\eac rips\orbital\bluealbum\07 - Acid Pants.wav

Peak level 98.0 % Track quality 100.0 % Test CRC 895C5D74 Copy CRC 895C5D74 Accurately ripped (confidence 36) [F5E122A1] Copy OK

Track 8

Filename C:\Documents and Settings\Hiekka\Рабочий стол\eac rips\orbital\bluealbum\08 - Easy Serv.wav

Pre-gap length 0:00:02.26

Peak level 86.9 % Track quality 100.0 % Test CRC 9B77F9A0 Copy CRC 9B77F9A0 Accurately ripped (confidence 36) [9845FE22] Copy OK

Track 9

Filename C:\Documents and Settings\Hiekka\Рабочий стол\eac rips\orbital\bluealbum\09 - One Perfect Sunrise.wav

Pre-gap length 0:00:00.33

Peak level 98.0 % Track quality 100.0 % Test CRC 24613E53 Copy CRC 24613E53 Accurately ripped (confidence 35) [69B615D8] Copy OK

All tracks accurately ripped

No errors occurred

End of status report


Трекер:  [ 06-Май-2012 14:30 ]

  

Скачать .torrent

Размер .torrent файла 16 KB


Размер: 372 MB
Хэш (hash) релиза: ecc997bc0dcbd9180d5be0cecb7e38cbb57c56ab

Еще никто не оставлял запись к записи скачать торрент Orbital - Blue album - 2004 . Будь первым!

!Обратная связь