Скачать через торрент музыку Etta James - Time After Time - 1995, FLAC бесплатно без регистрации torrent

Если у вас наблюдаются проблемы со скриншотами, переходом по ссылками, скачиванием торрентов - проблемы в блокировщике рекламы AdBlock. #хорошегоДня!


Статистика раздачи
Размер:  349 MB   |    Зарегистрирован:  5 лет 7 месяцев   |    .torrent скачан:  80 раз   |   
Раздают:  1  
   
Загрузка...
 
Автор Сообщение

Umakiro

avatar Umakiro


Etta James – Time After Time

Жанр: Vocal Jazz
Год издания диска: 1995
Издатель (лейбл): Private Music
Номер по каталогу: 01005-82128-2
Аудиокодек: FLAC (*.flac)
Тип рипа: tracks+.cue
Битрейт аудио: lossless
Продолжительность: 64:37
Rip by MidnightRocker
Наличие сканов в содержимом раздачи: мелкие

Треклист:
01. Don't Go To Strangers (5:03)
02. Teach Me Tonight (5:03)
03. Love Is Here To Stay (4:32)
04. The Nearnes Of You (6:36)
05. Time After Time (4:27)
06. My Funny Valentine (5:51)
07. Imagination (6:56)
08. Fool That I Am (4:02)
09. Willow Weep For Me (6:28)
10. Ev'rybody's Somebody's Fool (5:19)
11. Night And Day (4:19)
12. Someone To Watch Over Me (6:02)

Personnel:
Etta James - vocals
Ronnie Buttacavoli - trumpet, flugelhorn
Kraig Kilby - trombone
Eddie Harris, Herman Riley - tenor saxophone
Cedar Walton - piano
Josh Sklair - guitar
John Clayton - bass
Paul Humphrey - drums
Donto Metto James - shakers

Rec.: Conway Recording Studios, Los Angeles, CA.
  
Exact Audio Copy V0.99 prebeta 5 from 4. May 2009

EAC extraction logfile from 26. October 2009, 18:37

Etta James / Time After Time

Used drive : PLEXTOR DVDR PX-760A Adapter: 0 ID: 0

Read mode : SecureUtilize accurate stream : YesDefeat audio cache : YesMake use of C2 pointers : No

Read offset correction : 30Overread into Lead-In and Lead-Out : NoFill up missing offset samples with silence : YesDelete leading and trailing silent blocks : NoNull samples used in CRC calculations : YesUsed interface : Native Win32 interface for Win NT & 2000Gap handling : Appended to previous track

Used output format : Internal WAV RoutinesSample format : 44.100 Hz; 16 Bit; Stereo

TOC of the extracted CD

Track | Start | Length | Start sector | End sector --------------------------------------------------------- 1 | 0:00.00 | 5:02.50 | 0 | 22699 2 | 5:02.50 | 5:03.25 | 22700 | 45449 3 | 10:06.00 | 4:31.62 | 45450 | 65836 4 | 14:37.62 | 6:36.25 | 65837 | 95561 5 | 21:14.12 | 4:26.50 | 95562 | 115561 6 | 25:40.62 | 5:50.38 | 115562 | 141849 7 | 31:31.25 | 6:55.50 | 141850 | 173024 8 | 38:27.00 | 4:01.62 | 173025 | 191161 9 | 42:28.62 | 6:27.38 | 191162 | 220224 10 | 48:56.25 | 5:19.25 | 220225 | 244174 11 | 54:15.50 | 4:19.12 | 244175 | 263611 12 | 58:34.62 | 6:01.53 | 263612 | 290739

Track 1

Filename L:\Torrents\Etta James - Time After Time (1995) [FLAC]\01 - Don't Go to Strangers.wav

Pre-gap length 0:00:02.00

Peak level 100.0 % Track quality 100.0 % Test CRC 66711ED6 Copy CRC 66711ED6 Accurately ripped (confidence 5) [206E58B5] Copy OK

Track 2

Filename L:\Torrents\Etta James - Time After Time (1995) [FLAC]\02 - Teach Me Tonight.wav

Pre-gap length 0:00:02.48

Peak level 92.7 % Track quality 100.0 % Test CRC F578D24D Copy CRC F578D24D Accurately ripped (confidence 5) [CC4AB30E] Copy OK

Track 3

Filename L:\Torrents\Etta James - Time After Time (1995) [FLAC]\03 - Love Is Here to Stay.wav

Pre-gap length 0:00:03.48

Peak level 100.0 % Track quality 100.0 % Test CRC DF7DCAAF Copy CRC DF7DCAAF Accurately ripped (confidence 5) [A94276F2] Copy OK

Track 4

Filename L:\Torrents\Etta James - Time After Time (1995) [FLAC]\04 - The Nearness of You.wav

Pre-gap length 0:00:02.47

Peak level 99.2 % Track quality 100.0 % Test CRC 6445EB71 Copy CRC 6445EB71 Accurately ripped (confidence 5) [52B3A7AE] Copy OK

Track 5

Filename L:\Torrents\Etta James - Time After Time (1995) [FLAC]\05 - Time After Time.wav

Pre-gap length 0:00:03.45

Peak level 99.0 % Track quality 100.0 % Test CRC 2923C25F Copy CRC 2923C25F Accurately ripped (confidence 5) [8CD1B155] Copy OK

Track 6

Filename L:\Torrents\Etta James - Time After Time (1995) [FLAC]\06 - My Funny Valentine.wav

Pre-gap length 0:00:03.47

Peak level 90.4 % Track quality 100.0 % Test CRC 4C57C527 Copy CRC 4C57C527 Accurately ripped (confidence 5) [7E36D11E] Copy OK

Track 7

Filename L:\Torrents\Etta James - Time After Time (1995) [FLAC]\07 - Imagination.wav

Pre-gap length 0:00:03.48

Peak level 92.7 % Track quality 100.0 % Test CRC A132F667 Copy CRC A132F667 Accurately ripped (confidence 5) [45AE2AE8] Copy OK

Track 8

Filename L:\Torrents\Etta James - Time After Time (1995) [FLAC]\08 - Fool That I Am.wav

Pre-gap length 0:00:03.48

Peak level 92.3 % Track quality 100.0 % Test CRC E5CBA992 Copy CRC E5CBA992 Accurately ripped (confidence 5) [686A5A58] Copy OK

Track 9

Filename L:\Torrents\Etta James - Time After Time (1995) [FLAC]\09 - Willow Weep for Me.wav

Pre-gap length 0:00:03.47

Peak level 91.2 % Track quality 99.9 % Test CRC 05336A15 Copy CRC 05336A15 Accurately ripped (confidence 5) [D2B636DB] Copy OK

Track 10

Filename L:\Torrents\Etta James - Time After Time (1995) [FLAC]\10 - Ev'rybody's Somebody's Fool.wav

Pre-gap length 0:00:03.48

Peak level 93.0 % Track quality 100.0 % Test CRC 483D1DA1 Copy CRC 483D1DA1 Accurately ripped (confidence 5) [33845292] Copy OK

Track 11

Filename L:\Torrents\Etta James - Time After Time (1995) [FLAC]\11 - Night and Day.wav

Pre-gap length 0:00:03.48

Peak level 91.7 % Track quality 100.0 % Test CRC 6227F664 Copy CRC 6227F664 Accurately ripped (confidence 5) [8DB6C770] Copy OK

Track 12

Filename L:\Torrents\Etta James - Time After Time (1995) [FLAC]\12 - Someone to Watch over Me.wav

Pre-gap length 0:00:02.47

Peak level 84.6 % Track quality 100.0 % Test CRC 13A179EA Copy CRC 13A179EA Accurately ripped (confidence 4) [9A945312] Copy OK

All tracks accurately ripped

No errors occurred

End of status report
  
REM GENRE jazzREM DATE 1995REM DISCID B00F240CREM COMMENT "ExactAudioCopy v0.99pb5"PERFORMER "Etta James"TITLE "Time After Time"FILE "01. Don't Go To Strangers.flac" WAVE TRACK 01 AUDIO TITLE "Don't Go To Strangers" PERFORMER "Etta James" INDEX 01 00:00:00 TRACK 02 AUDIO TITLE "Teach Me Tonight" PERFORMER "Etta James" INDEX 00 05:00:02FILE "02. Teach Me Tonight.flac" WAVE INDEX 01 00:00:00 TRACK 03 AUDIO TITLE "Love Is Here To Stay" PERFORMER "Etta James" INDEX 00 04:59:52FILE "03. Love Is Here To Stay.flac" WAVE INDEX 01 00:00:00 TRACK 04 AUDIO TITLE "The Nearness Of You" PERFORMER "Etta James" INDEX 00 04:29:15FILE "04. The Nearness Of You.flac" WAVE INDEX 01 00:00:00 TRACK 05 AUDIO TITLE "Time After Time" PERFORMER "Etta James" INDEX 00 06:32:55FILE "05. Time After Time.flac" WAVE INDEX 01 00:00:00 TRACK 06 AUDIO TITLE "My Funny Valentine" PERFORMER "Etta James" INDEX 00 04:23:03FILE "06. My Funny Valentine.flac" WAVE INDEX 01 00:00:00 TRACK 07 AUDIO TITLE "Imagination" PERFORMER "Etta James" INDEX 00 05:46:65FILE "07. Imagination.flac" WAVE INDEX 01 00:00:00 TRACK 08 AUDIO TITLE "Fool That I Am" PERFORMER "Etta James" INDEX 00 06:52:02FILE "08. Fool That I Am.flac" WAVE INDEX 01 00:00:00 TRACK 09 AUDIO TITLE "Willow Weep For Me" PERFORMER "Etta James" INDEX 00 03:58:15FILE "09. Willow Weep For Me.flac" WAVE INDEX 01 00:00:00 TRACK 10 AUDIO TITLE "Ev'rybody's Somebody's Fool" PERFORMER "Etta James" INDEX 00 06:23:65FILE "10. Ev'rybody's Somebody's Fool.flac" WAVE INDEX 01 00:00:00 TRACK 11 AUDIO TITLE "Night And Day" PERFORMER "Etta James" INDEX 00 05:15:52FILE "11. Night And Day.flac" WAVE INDEX 01 00:00:00 TRACK 12 AUDIO TITLE "Someone To Watch Over Me" PERFORMER "Etta James" INDEX 00 04:16:40FILE "12. Someone To Watch Over Me.flac" WAVE INDEX 01 00:00:00
  
[CUETools log; Date: 21.02.2012 13:01:12; Version: 2.0.9][CTDB TOCID: I0Ppq_d79YZKIQqYsbSJG7GfjJ0-] found. [ CTDBID ] Status [32cebd49] (4/4) Accurately ripped[AccurateRip ID: 001c884c-010bb744-b00f240c] found.Track [ CRC ] Status 01 [206e58b5] (14/30) Accurately ripped 02 [cc4ab30e] (14/30) Accurately ripped 03 [a94276f2] (14/30) Accurately ripped 04 [52b3a7ae] (14/30) Accurately ripped 05 [8cd1b155] (14/30) Accurately ripped 06 [7e36d11e] (14/30) Accurately ripped 07 [45ae2ae8] (14/30) Accurately ripped 08 [686a5a58] (14/30) Accurately ripped 09 [d2b636db] (14/30) Accurately ripped 10 [33845292] (14/30) Accurately ripped 11 [8db6c770] (14/30) Accurately ripped 12 [9a945312] (12/26) Accurately rippedOffsetted by -1466: 01 [98cd167b] (16/30) Accurately ripped 02 [9ef8e3ae] (16/30) Accurately ripped 03 [3be7d800] (16/30) Accurately ripped 04 [f3401036] (16/30) Accurately ripped 05 [07e46db3] (16/30) Accurately ripped 06 [d196314e] (16/30) Accurately ripped 07 [d0e7c1bc] (16/30) Accurately ripped 08 [613e2ce8] (16/30) Accurately ripped 09 [b03f4495] (16/30) Accurately ripped 10 [b825c68e] (16/30) Accurately ripped 11 [bfd1f026] (16/30) Accurately ripped 12 [54fbe37c] (14/26) Accurately ripped

Track Peak [ CRC32 ] [W/O NULL] [ LOG ] -- 100,0 [A515D3F9] [FAA788C0] 01 99,9 [66711ED6] [39F26998] CRC32 02 92,7 [F578D24D] [89A8C4BD] CRC32 03 100,0 [DF7DCAAF] [B7345AEB] CRC32 04 99,2 [6445EB71] [08D440DC] CRC32 05 99,0 [2923C25F] [94D1DE46] CRC32 06 90,4 [4C57C527] [D7FB679B] CRC32 07 92,7 [A132F667] [23A62D6E] CRC32 08 92,3 [E5CBA992] [FF00F14F] CRC32 09 91,2 [05336A15] [E519889E] CRC32 10 93,0 [483D1DA1] [2256A77F] CRC32 11 91,7 [6227F664] [9C6717A3] CRC32 12 84,6 [13A179EA] [C169B5A4] CRC32


Трекер:  [ 25-Фев-2012 10:22 ]

  

Скачать .torrent

Размер .torrent файла 15 KB


Размер: 349 MB
Хэш (hash) релиза: 01540e71d8cee0ade70ee1686b73b45a96fded03

Еще никто не оставлял запись к записи скачать торрент Etta James - Time After Time - 1995, FLAC . Будь первым!

!Обратная связь