Скачать через торрент музыку Irakere - Live At Ronnie Scotts бесплатно без регистрации torrent

Если у вас наблюдаются проблемы со скриншотами, переходом по ссылками, скачиванием торрентов - проблемы в блокировщике рекламы AdBlock. #хорошегоДня!


Статистика раздачи
Размер:  357 MB   |    Зарегистрирован:  5 лет 7 месяцев   |    .torrent скачан:  37 раз   |   
Раздают:  1  
   
Загрузка...
 
Автор Сообщение

Umakiro

avatar Umakiro


Irakere – Live At Ronnie Scott's (1991)

Жанр: Afro-Cuban Jazz
Год издания диска: 1993
Издатель (лейбл): Blue Note
Номер по каталогу: CDP 0777 7 80598 2 0
Аудиокодек: FLAC (*.flac)
Тип рипа: tracks+.cue
Битрейт аудио: lossless
Продолжительность: 61:19
Источник: вата
Наличие сканов в содержимом раздачи: front, back

Треклист:
01. Neurosis (12:27)
02. Cuando Canta El Corazón (8:01)
03. Mirando Arriba (7:20)
04. Flute Notes (12:59)
05. Mr. Bruce (11:40)
06. Claudia (8:52)

Personnel:
Chucho Valdés - piano
Juan Monguia - trumpet
Adalberto Moreno - trumpet
Cesar Lopez - alto & soprano sax
Carlos Averhoff - tenor sax
Orlando "Maraca" Valle - flute, keyboards
Carlos Emilio Morales - guitar
Carlos del Puerto - bass
Enrique Pla - percussion, drums
Oscar Valdés - percussion, vocals
Miguel "Angá" Diaz - conga

Rec.: live at Ronnie Scott's Club, London, September, 1991.
  
Exact Audio Copy V0.99 prebeta 4 from 23. January 2008

EAC extraction logfile from 30. May 2010, 22:02

Irakere / Live At Ronnie Scott's

Used drive : TSSTcorpCDDVDW TS-H653N Adapter: 2 ID: 2

Read mode : SecureUtilize accurate stream : YesDefeat audio cache : YesMake use of C2 pointers : No

Read offset correction : 6Overread into Lead-In and Lead-Out : NoFill up missing offset samples with silence : YesDelete leading and trailing silent blocks : NoNull samples used in CRC calculations : YesUsed interface : Native Win32 interface for Win NT & 2000Gap handling : Appended to previous track

Used output format : User Defined EncoderSelected bitrate : 1024 kBit/sQuality : HighAdd ID3 tag : NoCommand line compressor : C:\Program Files\FLAC -\flac.exeAdditional command line options : -5 -V -T "artist=%a" -T "title=%t" -T "album=%g" -T "date=%y" -T "tracknumber=%n" -T "genre=%m" -T comment="shared by pastafari cubensis" %s

TOC of the extracted CD

Track | Start | Length | Start sector | End sector --------------------------------------------------------- 1 | 0:00.00 | 12:27.27 | 0 | 56051 2 | 12:27.27 | 8:01.00 | 56052 | 92126 3 | 20:28.27 | 7:20.35 | 92127 | 125161 4 | 27:48.62 | 12:58.38 | 125162 | 183549 5 | 40:47.25 | 11:40.22 | 183550 | 236071 6 | 52:27.47 | 8:51.50 | 236072 | 275946

Track 1

Filename C:\CD_buffer\Irakere - 1993 - Live At Ronnie Scott's [FLAC]\01- Neurosis.wav

Pre-gap length 0:00:02.00

Peak level 89.1 % Track quality 100.0 % Test CRC 4FD20E61 Copy CRC 4FD20E61 Copy OK

Track 2

Filename C:\CD_buffer\Irakere - 1993 - Live At Ronnie Scott's [FLAC]\02- Cuando canta el corazуn.wav

Peak level 100.0 % Track quality 100.0 % Test CRC FB130B58 Copy CRC FB130B58 Copy OK

Track 3

Filename C:\CD_buffer\Irakere - 1993 - Live At Ronnie Scott's [FLAC]\03- Mirando arriba.wav

Peak level 98.5 % Track quality 100.0 % Test CRC 5BA6E40A Copy CRC 5BA6E40A Copy OK

Track 4

Filename C:\CD_buffer\Irakere - 1993 - Live At Ronnie Scott's [FLAC]\04- Flute Notes.wav

Peak level 82.7 % Track quality 100.0 % Test CRC 45870C0D Copy CRC 45870C0D Copy OK

Track 5

Filename C:\CD_buffer\Irakere - 1993 - Live At Ronnie Scott's [FLAC]\05- Mr. Bruce.wav

Peak level 98.8 % Track quality 99.9 % Test CRC BF9BD4A9 Copy CRC BF9BD4A9 Copy OK

Track 6

Filename C:\CD_buffer\Irakere - 1993 - Live At Ronnie Scott's [FLAC]\06- Claudia.wav

Peak level 100.0 % Track quality 99.6 % Test CRC EFB4E995 Copy CRC EFB4E995 Copy OK

No errors occurred

End of status report
  
REM GENRE "Afrocuban Jazz"REM DATE 1991REM DISCID 4E0E5F06REM COMMENT "ExactAudioCopy v0.99pb4"PERFORMER "Irakere"TITLE "Live At Ronnie Scott's"FILE "01. Neurosis.flac" WAVE TRACK 01 AUDIO PERFORMER "Irakere" INDEX 01 00:00:00FILE "02. Cuando Canta El Corazon.flac" WAVE TRACK 02 AUDIO PERFORMER "Irakere" INDEX 01 00:00:00FILE "03. Mirando Arriba.flac" WAVE TRACK 03 AUDIO PERFORMER "Irakere" INDEX 01 00:00:00FILE "04. Flute Notes.flac" WAVE TRACK 04 AUDIO PERFORMER "Irakere" INDEX 01 00:00:00FILE "05. Mr. Bruce.flac" WAVE TRACK 05 AUDIO PERFORMER "Irakere" INDEX 01 00:00:00FILE "06. Claudia.flac" WAVE TRACK 06 AUDIO PERFORMER "Irakere" INDEX 01 00:00:00
  
[CUETools log; Date: 22.02.2012 6:19:57; Version: 2.0.9][CTDB TOCID: 9aout1xvQ06s70pMqoKoad5SHiE-] disk not present in database.[AccurateRip ID: 000ec8ce-004ea881-4e0e5f06] found.Track [ CRC ] Status 01 [7c765f89] (11/13) Accurately ripped 02 [09aa80a9] (11/13) Accurately ripped 03 [faa0e7e0] (10/12) Accurately ripped 04 [645351f7] (11/13) Accurately ripped 05 [775de5dd] (11/13) Accurately ripped 06 [dceffdf1] (11/13) Accurately rippedOffsetted by -935: 01 [d872bee7] (02/13) Accurately ripped 02 [b40dce93] (02/13) Accurately ripped 03 [ff00ead3] (02/12) Accurately ripped 04 [f4be845a] (02/13) Accurately ripped 05 [bf644379] (02/13) Accurately ripped 06 [634ce602] (02/13) Accurately ripped

Track Peak [ CRC32 ] [W/O NULL] [ LOG ] -- 100,0 [FCF534AA] [D51DAFA8] 01 89,1 [4FD20E61] [08989949] CRC32 02 100,0 [FB130B58] [2271E496] CRC32 03 98,5 [5BA6E40A] [2DE810F4] CRC32 04 82,7 [45870C0D] [FE04FF15] CRC32 05 98,8 [BF9BD4A9] [0C8E2441] CRC32 06 100,0 [EFB4E995] [01DF5BE5] CRC32


Трекер:  [ 25-Фев-2012 10:20 ]

  

Скачать .torrent

Размер .torrent файла 15 KB


Размер: 357 MB
Хэш (hash) релиза: a96cc8b654d7bfb9cdd2482c2713956fa31e7168

Еще никто не оставлял запись к записи скачать торрент Irakere - Live At Ronnie Scotts . Будь первым!

!Обратная связь