Скачать через торрент музыку Etta Jones - Sugar - 1990, FLAC бесплатно без регистрации torrent

Если у вас наблюдаются проблемы со скриншотами, переходом по ссылками, скачиванием торрентов - проблемы в блокировщике рекламы AdBlock. #хорошегоДня!


Статистика раздачи
Размер:  238 MB   |    Зарегистрирован:  5 лет 7 месяцев   |    .torrent скачан:  38 раз   |   
Раздают:  1  
   
Загрузка...
 
Автор Сообщение

Umakiro

avatar Umakiro


Etta Jones – Sugar

Жанр: Vocal Jazz
Год издания диска: 1990
Издатель (лейбл): Muse Records
Номер по каталогу: 5379
Аудиокодек: FLAC (*.flac)
Тип рипа: tracks+.cue
Битрейт аудио: lossless
Продолжительность: 42:13
Источник: вата

Треклист:
01. Sugar (4:40)
02. So I Love You (6:06)
03. That's All There Is To That (4:46)
04. All The Way (6:22)
05. He's Funny That Way (4:23)
06. Blow Top Blues (6:00)
07. This Is Always (5:10)
08. Side By Side (4:46)

Personnel:
Etta Jones - vo
Houston Person - ts
George Devens - vib
Horace Ott (1-4) - key, arr
Stan Hope (5-8) - p, arr
Randy Johnston - g
Wilbur Bascomb (1-4) - b
Peter Martin Weiss (5-8) - b
Cecil Brooks III (1-4) - d
Bertel Knox (5-8) - d
Ralph Dorsey - cga, perc

Rec.: Van Gelder Studio, Englewood Cliffs, NJ, October 18 & 30, 1989.
  
X Lossless Decoder version 20120120 (139.0)

XLD extraction logfile from 2012-02-14 00:02:57 +0000

Etta Jones / Sugar

Used drive : HL-DT-ST DVDRW GS23N (revision SB07)

Ripper mode : XLD Secure RipperDisable audio cache : OK for the drive with a cache less than 1375KiBMake use of C2 pointers : NORead offset correction : 667Max retry count : 20Gap status : Analyzed, Appended (except HTOA)

TOC of the extracted CD Track | Start | Length | Start sector | End sector --------------------------------------------------------- 1 | 00:00:00 | 04:40:00 | 0 | 20999 2 | 04:40:00 | 06:06:00 | 21000 | 48449 3 | 10:46:00 | 04:46:05 | 48450 | 69904 4 | 15:32:05 | 06:21:55 | 69905 | 98534 5 | 21:53:60 | 04:23:15 | 98535 | 118274 6 | 26:17:00 | 05:59:52 | 118275 | 145251 7 | 32:16:52 | 05:10:23 | 145252 | 168524 8 | 37:27:00 | 04:45:72 | 168525 | 189971

AccurateRip Summary Track 01 : OK (AR2, confidence 1) Track 02 : OK (AR2, confidence 1) Track 03 : OK (AR2, confidence 1) Track 04 : OK (AR2, confidence 1) Track 05 : OK (AR2, confidence 1) Track 06 : OK (AR2, confidence 1) Track 07 : OK (AR2, confidence 1) Track 08 : OK (AR2, confidence 1) ->All tracks accurately ripped.

All Tracks Album gain : -7.38 dB Peak : 0.908813 Statistics Read error : 0 Jitter error (maybe fixed) : 0 Retry sector count : 0 Damaged sector count : 0

Track 01 Filename : /Users/dannywodes/Desktop/WhatDot/Etta Jones - Sugar (1990) [FLAC]/01 Sugar.flac Pre-gap length : 00:02:00

Track gain : -8.26 dB Peak : 0.908783 CRC32 hash (test run) : 3C2E50D8 CRC32 hash : 3C2E50D8 CRC32 hash (skip zero) : 0AC27554 AccurateRip signature : E6A27496 ->Accurately ripped! (AR2, confidence 1) Statistics Read error : 0 Jitter error (maybe fixed) : 0 Retry sector count : 0 Damaged sector count : 0

Track 02 Filename : /Users/dannywodes/Desktop/WhatDot/Etta Jones - Sugar (1990) [FLAC]/02 So I Love You.flac Pre-gap length : 00:02:58

Track gain : -7.28 dB Peak : 0.905914 CRC32 hash (test run) : 5B06949E CRC32 hash : 5B06949E CRC32 hash (skip zero) : 31312B65 AccurateRip signature : F5BBA184 ->Accurately ripped! (AR2, confidence 1) Statistics Read error : 0 Jitter error (maybe fixed) : 0 Retry sector count : 0 Damaged sector count : 0

Track 03 Filename : /Users/dannywodes/Desktop/WhatDot/Etta Jones - Sugar (1990) [FLAC]/03 That's All There Is To That.flac Pre-gap length : 00:03:05

Track gain : -7.22 dB Peak : 0.908813 CRC32 hash (test run) : E12FC2B1 CRC32 hash : E12FC2B1 CRC32 hash (skip zero) : FD6445DC AccurateRip signature : 0E9E5B04 ->Accurately ripped! (AR2, confidence 1) Statistics Read error : 0 Jitter error (maybe fixed) : 0 Retry sector count : 0 Damaged sector count : 0

Track 04 Filename : /Users/dannywodes/Desktop/WhatDot/Etta Jones - Sugar (1990) [FLAC]/04 All The Way.flac Pre-gap length : 00:03:10

Track gain : -6.54 dB Peak : 0.907745 CRC32 hash (test run) : 96501217 CRC32 hash : 96501217 CRC32 hash (skip zero) : 1BEED373 AccurateRip signature : 63AE8191 ->Accurately ripped! (AR2, confidence 1) Statistics Read error : 0 Jitter error (maybe fixed) : 0 Retry sector count : 0 Damaged sector count : 0

Track 05 Filename : /Users/dannywodes/Desktop/WhatDot/Etta Jones - Sugar (1990) [FLAC]/05 He's Funny That Way.flac Pre-gap length : 00:03:20

Track gain : -6.98 dB Peak : 0.906982 CRC32 hash (test run) : C74DEBDB CRC32 hash : C74DEBDB CRC32 hash (skip zero) : 980344DE AccurateRip signature : 442769D7 ->Accurately ripped! (AR2, confidence 1) Statistics Read error : 0 Jitter error (maybe fixed) : 0 Retry sector count : 0 Damaged sector count : 0

Track 06 Filename : /Users/dannywodes/Desktop/WhatDot/Etta Jones - Sugar (1990) [FLAC]/06 Blow Top Blues.flac Pre-gap length : 00:03:13

Track gain : -7.37 dB Peak : 0.907166 CRC32 hash (test run) : 2B474C5F CRC32 hash : 2B474C5F CRC32 hash (skip zero) : B6DB16D6 AccurateRip signature : F126BE20 ->Accurately ripped! (AR2, confidence 1) Statistics Read error : 0 Jitter error (maybe fixed) : 0 Retry sector count : 0 Damaged sector count : 0

Track 07 Filename : /Users/dannywodes/Desktop/WhatDot/Etta Jones - Sugar (1990) [FLAC]/07 This Is Always.flac Pre-gap length : 00:03:40

Track gain : -4.60 dB Peak : 0.881439 CRC32 hash (test run) : AD037A29 CRC32 hash : AD037A29 CRC32 hash (skip zero) : AB46AB26 AccurateRip signature : EE8F6EB6 ->Accurately ripped! (AR2, confidence 1) Statistics Read error : 0 Jitter error (maybe fixed) : 0 Retry sector count : 0 Damaged sector count : 0

Track 08 Filename : /Users/dannywodes/Desktop/WhatDot/Etta Jones - Sugar (1990) [FLAC]/08 Side By Side.flac Pre-gap length : 00:03:40

Track gain : -8.84 dB Peak : 0.908783 CRC32 hash (test run) : 34878A89 CRC32 hash : 34878A89 CRC32 hash (skip zero) : E2E039C7 AccurateRip signature : F97FC928 ->Accurately ripped! (AR2, confidence 1) Statistics Read error : 0 Jitter error (maybe fixed) : 0 Retry sector count : 0 Damaged sector count : 0

No errors occurred

End of status report
  
REM DATE 1990REM GENRE JazzREM DISCID 7609E408REM REPLAYGAIN_ALBUM_GAIN -7.38 dBREM REPLAYGAIN_ALBUM_PEAK 0.908813PERFORMER "Etta Jones"TITLE "Sugar"FILE "01. Sugar.flac" WAVE TRACK 01 AUDIO TITLE "Sugar" INDEX 01 00:00:00 TRACK 02 AUDIO TITLE "So I Love You" INDEX 00 04:37:17FILE "02. So I Love You.flac" WAVE INDEX 01 00:00:00 TRACK 03 AUDIO TITLE "That's All There Is To That" INDEX 00 06:02:70FILE "03. That's All There Is To That.flac" WAVE INDEX 01 00:00:00 TRACK 04 AUDIO TITLE "All The Way" INDEX 00 04:42:70FILE "04. All The Way.flac" WAVE INDEX 01 00:00:00 TRACK 05 AUDIO TITLE "He's Funny That Way" INDEX 00 06:18:35FILE "05. He's Funny That Way.flac" WAVE INDEX 01 00:00:00 TRACK 06 AUDIO TITLE "Blow Top Blues" INDEX 00 04:20:02FILE "06. Blow Top Blues.flac" WAVE INDEX 01 00:00:00 TRACK 07 AUDIO TITLE "This Is Always" INDEX 00 05:56:12FILE "07. This Is Always.flac" WAVE INDEX 01 00:00:00 TRACK 08 AUDIO TITLE "Side By Side" INDEX 00 05:06:58FILE "08. Side By Side.flac" WAVE INDEX 01 00:00:00


Трекер:  [ 25-Фев-2012 10:19 ]

  

Скачать .torrent

Размер .torrent файла 19 KB


Размер: 238 MB
Хэш (hash) релиза: 1946ada8ba866ff4bdc2a30ffada8c430fa48e6e

Еще никто не оставлял запись к записи скачать торрент Etta Jones - Sugar - 1990, FLAC . Будь первым!

!Обратная связь