Скачать через торрент музыку Grover Washington Jr. - Plays The Hits - 2010, FLAC бесплатно без регистрации torrent

Если у вас наблюдаются проблемы со скриншотами, переходом по ссылками, скачиванием торрентов - проблемы в блокировщике рекламы AdBlock. #хорошегоДня!


Статистика раздачи
Размер:  185 MB   |    Зарегистрирован:  5 лет 7 месяцев   |    .torrent скачан:  51 раз   |   
Раздают:  2  
   
Загрузка...
 
Автор Сообщение

Umakiro

avatar Umakiro


Grover Washington Jr. – Plays The Hits

Жанр: Soul Jazz
Год издания диска: 2010
Издатель (лейбл): Verve
Номер по каталогу: 2731134
Аудиокодек: FLAC (*.flac)
Тип рипа: image+.cue
Битрейт аудио: lossless
Продолжительность: 30:03
Rip by shatterhand
Наличие сканов в содержимом раздачи: да

Треклист:
01. Where Is The Love (5:06)
02. Georgia On My Mind (4:40)
03. Mercy Mercy Me (The Ecology Song) (5:06)
04. Lean On Me (4:25)
05. Just The Way You Are (4:44)
06. You Are The Sunshine Of My Life (6:02)
  
Exact Audio Copy V1.0 beta 3 from 29. August 2011

EAC extraction logfile from 28. January 2012, 23:28

Grover Washington Jr. / Plays the Hits

Used drive : PIONEER DVD-ROM DVD-116 Adapter: 1 ID: 0

Read mode : SecureUtilize accurate stream : YesDefeat audio cache : YesMake use of C2 pointers : No

Read offset correction : 102Overread into Lead-In and Lead-Out : NoFill up missing offset samples with silence : YesDelete leading and trailing silent blocks : NoNull samples used in CRC calculations : YesUsed interface : Native Win32 interface for Win NT & 2000

Used output format : Internal WAV RoutinesSample format : 44.100 Hz; 16 Bit; Stereo

TOC of the extracted CD

Track | Start | Length | Start sector | End sector --------------------------------------------------------- 1 | 0:00.00 | 5:06.02 | 0 | 22951 2 | 5:06.02 | 4:39.68 | 22952 | 43944 3 | 9:45.70 | 5:05.57 | 43945 | 66876 4 | 14:51.52 | 4:25.07 | 66877 | 86758 5 | 19:16.59 | 4:43.51 | 86759 | 108034 6 | 24:00.35 | 6:02.12 | 108035 | 135196

Range status and errors

Selected range

Filename F:\iso\Grover Washington Jr. - Plays the Hits\Grover Washington Jr. - Plays the Hits.wav

Peak level 100.0 % Extraction speed 4.5 X Range quality 100.0 % Test CRC DDB9EB55 Copy CRC DDB9EB55 Copy OK

No errors occurred

AccurateRip summary

Track 1 accurately ripped (confidence 1) [AF8C1068] (AR v1)Track 2 accurately ripped (confidence 1) [B0F108FC] (AR v1)Track 3 accurately ripped (confidence 1) [3324F7D8] (AR v1)Track 4 accurately ripped (confidence 1) [7D3DC413] (AR v1)Track 5 accurately ripped (confidence 1) [7C974629] (AR v1)Track 6 accurately ripped (confidence 1) [4293B701] (AR v1)

All tracks accurately ripped

End of status report
  
п»їREM GENRE "Jazz"REM DATE 2010REM DISCID 4F070A06REM COMMENT "ExactAudioCopy v1.0b3"PERFORMER "Grover Washington Jr."TITLE "Plays The Hits"FILE "Grover Washington Jr. - Plays The Hits.flac" WAVE TRACK 01 AUDIO TITLE "Where Is The Love" PERFORMER "Grover Washington Jr." INDEX 01 00:00:00 TRACK 02 AUDIO TITLE "Georgia On My Mind" PERFORMER "Grover Washington Jr." INDEX 00 05:05:46 INDEX 01 05:06:02 TRACK 03 AUDIO TITLE "Mercy Mercy Me (The Ecology Song)" PERFORMER "Grover Washington Jr." INDEX 00 09:45:65 INDEX 01 09:45:70 TRACK 04 AUDIO TITLE "Lean On Me" PERFORMER "Grover Washington Jr." INDEX 00 14:51:21 INDEX 01 14:51:52 TRACK 05 AUDIO TITLE "Just The Way You Are" PERFORMER "Grover Washington Jr." INDEX 00 19:16:42 INDEX 01 19:16:59 TRACK 06 AUDIO TITLE "You Are The Sunshine Of My Life" PERFORMER "Grover Washington Jr." INDEX 00 24:00:29 INDEX 01 24:00:35
  
[CUETools log; Date: 23.02.2012 16:09:06; Version: 2.0.9][CTDB TOCID: OweeD76RV.3Tbq0uND2FWRU.USA-] disk not present in database.[AccurateRip ID: 00071395-0025bea0-4f070a06] found.Track [ CRC ] Status 01 [af8c1068] (1/1) Accurately ripped 02 [b0f108fc] (1/1) Accurately ripped 03 [3324f7d8] (1/1) Accurately ripped 04 [7d3dc413] (1/1) Accurately ripped 05 [7c974629] (1/1) Accurately ripped 06 [4293b701] (1/1) Accurately ripped

Track Peak [ CRC32 ] [W/O NULL] [ LOG ] -- 100,0 [DDB9EB55] [5D8C50B7] CRC32 01 89,0 [5ECF0426] [8F365DF8] 02 100,0 [2EE322B4] [66222B1C] 03 89,0 [FEF03C0D] [A93B5770] 04 78,5 [FD986ECF] [60DF8B2A] 05 100,0 [A8CDF2A5] [4DCD3833] 06 85,0 [B2210628] [2B7A45E1]
The Great Performances/Great Songs series by Verve is a new attempt to get prospective buyers interested in its vast jazz catalog by introducing them to large-scale hits by artists who appeared either on its label proper, or on one of its licensees'. In the case of saxophonist Grover Washington, Jr., these are sides he cut for Creed Taylor's Kudu imprint -- Motown’s jazz label at the time -- between 1971 and 1978. The six selections are all covers of very popular soul or pop numbers, and come from recordings like Inner City Blues, All the King’s Horses, and Soul Box, Vol. 2, though the gorgeous reading of Billy Joel's “All the Things You Are” comes from 1978’s Reed Seed. Other tracks included here are stylish renditions of “Where Is the Love?,” “Georgia on My Mind,” Marvin Gaye's “Mercy Mercy Me (The Ecology Song),” a reggae version of Bill Withers’ “Lean on Me,” and Stevie Wonder’s "You are the Sunshine Of My Life.” This is very early material for the saxophonist, and music that has, in recent years, finally seen its proper due as being truly illustrative of his gifts as an improviser and his technical facility on both tenor and soprano horns. Most of the material here was produced by Taylor, and a couple of tracks were arranged by Bob James -- before his own great popular success. All of it features a stellar array of sidemen who became part of Taylor’s CTI stable during this time. This is all great vibe music with terrific musicianship. Andy McKaie compiled this collection with taste -- even though it doesn’t contain any of Washington Jr.’s own tunes because they fall outside the purview of the series -- this is a fine comp, and for the money it can’t be beat.
~ Thom Jurek


Трекер:  [ 25-Фев-2012 10:17 ]

  

Скачать .torrent

Размер .torrent файла 15 KB


Размер: 185 MB
Хэш (hash) релиза: b9a1e9b9d6169a39d7d17130c4a2ac3b4961959e

Еще никто не оставлял запись к записи скачать торрент Grover Washington Jr. - Plays The Hits - 2010, FLAC . Будь первым!

!Обратная связь