Скачать через торрент музыку Benny Goodman And His Orchestra - 1946-1947 {Chronological Classics, 1385} - 2005, FLAC бесплатно без регистрации torrent

Если у вас наблюдаются проблемы со скриншотами, переходом по ссылками, скачиванием торрентов - проблемы в блокировщике рекламы AdBlock. #хорошегоДня!


Статистика раздачи
Размер:  167 MB   |    Зарегистрирован:  5 лет 7 месяцев   |    .torrent скачан:  45 раз   |   
Раздают:  1  
   
Загрузка...
 
Автор Сообщение

Umakiro

avatar Umakiro


Benny Goodman And His Orchestra – 1946-1947 {Chronological Classics, 1385}

Жанр: Swing, Big Band
Год издания диска: 2005
Издатель (лейбл): Classics
Номер по каталогу: 1385
Аудиокодек: FLAC (*.flac)
Тип рипа: tracks+.cue
Битрейт аудио: lossless
Продолжительность: 76:09
Источник: вата
Наличие сканов в содержимом раздачи: сетевые

Треклист:
01. Put That Kiss Back Where You Found It (3:19)
02. Benjie's Bubble (2:47)
03. Hora Stacato (2:40)
04. Poor Butterfly (3:24)
05. That's The Beginning Of The End (3:21)
06. Man Here Plays Fine Piano (3:09)
07. A Gal In Calico (2:45)
08. I'll Always Be In Love With You (3:15)
09. Honeysuckle Rose (3:18)
10. Lonely Moments (3:09)
11. It Takes Time (3:14)
12. Moon-Faced, Starry-Eyed (3:07)
13. Whistle Blues (2:49)
14. Moon-Faced, Starry-Eyed (3:07)
15. Sweet Georgia Brown (2:52)
16. I'll Always Be In Love With You (3:11)
17. Sweet Lorraine (3:05)
18. St. Louis Blues (3:01)
19. I Know That You Know (2:42)
20. I Can't Get Started (3:18)
21. The Lonesome Road (2:50)
22. Fine And Dandy (3:06)
23. The Bannister Slide (2:47)
24. Eight, Nine And Ten (2:58)
25. I Never Knew (2:56)
  
X Lossless Decoder version 20101128 (126.0)

XLD extraction logfile from 2010-12-03 17:54:36 -0600

Benny Goodman / 1946-1947 (Chronological Classics 1385)

Used drive : MATSHITA CD-RW CW-8221 (revision GA0K)

Ripper mode : CDParanoia III 10.2Disable audio cache : OK for the drive with a cache less than 2750KiBMake use of C2 pointers : NORead offset correction : 102Max retry count : 100Gap status : Analyzed, Appended

TOC of the extracted CD Track | Start | Length | Start sector | End sector --------------------------------------------------------- 1 | 00:00:00 | 03:19:20 | 0 | 14944 2 | 03:19:20 | 02:46:47 | 14945 | 27441 3 | 06:05:67 | 02:39:70 | 27442 | 39436 4 | 08:45:62 | 03:23:50 | 39437 | 54711 5 | 12:09:37 | 03:20:48 | 54712 | 69759 6 | 15:30:10 | 03:08:40 | 69760 | 83899 7 | 18:38:50 | 02:44:72 | 83900 | 96271 8 | 21:23:47 | 03:14:63 | 96272 | 110884 9 | 24:38:35 | 03:18:32 | 110885 | 125766 10 | 27:56:67 | 03:09:08 | 125767 | 139949 11 | 31:06:00 | 03:14:00 | 139950 | 154499 12 | 34:20:00 | 03:06:65 | 154500 | 168514 13 | 37:26:65 | 02:48:72 | 168515 | 181186 14 | 40:15:62 | 03:07:25 | 181187 | 195236 15 | 43:23:12 | 02:52:22 | 195237 | 208158 16 | 46:15:34 | 03:10:73 | 208159 | 222481 17 | 49:26:32 | 03:05:13 | 222482 | 236369 18 | 52:31:45 | 03:01:00 | 236370 | 249944 19 | 55:32:45 | 02:41:72 | 249945 | 262091 20 | 58:14:42 | 03:18:00 | 262092 | 276941 21 | 61:32:42 | 02:49:73 | 276942 | 289689 22 | 64:22:40 | 03:05:57 | 289690 | 303621 23 | 67:28:22 | 02:46:63 | 303622 | 316134 24 | 70:15:10 | 02:57:72 | 316135 | 329481 25 | 73:13:07 | 02:56:10 | 329482 | 342691

AccurateRip Summary Disc not found in AccurateRip DB.

All Tracks Album gain : -6.43 dB Peak : 0.999969 Statistics Read error : 0 Skipped (treated as error) : 0 Edge jitter error (maybe fixed) : 0 Atom jitter error (maybe fixed) : 19 Drift error (maybe fixed) : 0 Dropped bytes error (maybe fixed) : 0 Duplicated bytes error (maybe fixed) : 0

Track 01 Filename : /Users/joel/freshly_transcoded/1385 - 2005 - Benny Goodman - 1946-1947 [FLAC]/01 - Put That Kiss Back Where You Found It.flac Pre-gap length : 00:02:00

Track gain : -5.61 dB Peak : 0.891418 CRC32 hash (test run) : 841E2E1D CRC32 hash : 841E2E1D CRC32 hash (skip zero) : CE18F2F1 AccurateRip signature : 00000000 ->Track not present in AccurateRip database. Statistics Read error : 0 Skipped (treated as error) : 0 Edge jitter error (maybe fixed) : 0 Atom jitter error (maybe fixed) : 0 Drift error (maybe fixed) : 0 Dropped bytes error (maybe fixed) : 0 Duplicated bytes error (maybe fixed) : 0 Inconsistency in error sectors : 0

Track 02 Filename : /Users/joel/freshly_transcoded/1385 - 2005 - Benny Goodman - 1946-1947 [FLAC]/02 - Benjie's Bubble.flac Pre-gap length : 00:02:43

Track gain : -6.56 dB Peak : 0.841675 CRC32 hash (test run) : D76AE193 CRC32 hash : D76AE193 CRC32 hash (skip zero) : 6E2522C9 AccurateRip signature : 00000000 ->Track not present in AccurateRip database. Statistics Read error : 0 Skipped (treated as error) : 0 Edge jitter error (maybe fixed) : 0 Atom jitter error (maybe fixed) : 0 Drift error (maybe fixed) : 0 Dropped bytes error (maybe fixed) : 0 Duplicated bytes error (maybe fixed) : 0 Inconsistency in error sectors : 0

Track 03 Filename : /Users/joel/freshly_transcoded/1385 - 2005 - Benny Goodman - 1946-1947 [FLAC]/03 - Hora Stacato.flac Pre-gap length : 00:02:42

Track gain : -7.16 dB Peak : 0.966370 CRC32 hash (test run) : 6E1F2F47 CRC32 hash : 6E1F2F47 CRC32 hash (skip zero) : 9915D402 AccurateRip signature : 00000000 ->Track not present in AccurateRip database. Statistics Read error : 0 Skipped (treated as error) : 0 Edge jitter error (maybe fixed) : 0 Atom jitter error (maybe fixed) : 0 Drift error (maybe fixed) : 0 Dropped bytes error (maybe fixed) : 0 Duplicated bytes error (maybe fixed) : 0 Inconsistency in error sectors : 0

Track 04 Filename : /Users/joel/freshly_transcoded/1385 - 2005 - Benny Goodman - 1946-1947 [FLAC]/04 - Poor Butterfly.flac Pre-gap length : 00:02:42

Track gain : -7.46 dB Peak : 0.999939 CRC32 hash (test run) : 76FD4C48 CRC32 hash : 76FD4C48 CRC32 hash (skip zero) : 3BCE1C06 AccurateRip signature : 00000000 ->Track not present in AccurateRip database. Statistics Read error : 0 Skipped (treated as error) : 0 Edge jitter error (maybe fixed) : 0 Atom jitter error (maybe fixed) : 0 Drift error (maybe fixed) : 0 Dropped bytes error (maybe fixed) : 0 Duplicated bytes error (maybe fixed) : 0 Inconsistency in error sectors : 0

Track 05 Filename : /Users/joel/freshly_transcoded/1385 - 2005 - Benny Goodman - 1946-1947 [FLAC]/05 - That's the Beginning of the End.flac Pre-gap length : 00:02:42

Track gain : -7.04 dB Peak : 0.999908 CRC32 hash (test run) : C60D45B1 CRC32 hash : C60D45B1 CRC32 hash (skip zero) : 3CA91AA4 AccurateRip signature : 00000000 ->Track not present in AccurateRip database. Statistics Read error : 0 Skipped (treated as error) : 0 Edge jitter error (maybe fixed) : 0 Atom jitter error (maybe fixed) : 0 Drift error (maybe fixed) : 0 Dropped bytes error (maybe fixed) : 0 Duplicated bytes error (maybe fixed) : 0 Inconsistency in error sectors : 0

Track 06 Filename : /Users/joel/freshly_transcoded/1385 - 2005 - Benny Goodman - 1946-1947 [FLAC]/06 - Man Here Plays Fine Piano.flac Pre-gap length : 00:02:43

Track gain : -5.77 dB Peak : 0.977570 CRC32 hash (test run) : 1451453A CRC32 hash : 1451453A CRC32 hash (skip zero) : 131E0A26 AccurateRip signature : 00000000 ->Track not present in AccurateRip database. Statistics Read error : 0 Skipped (treated as error) : 0 Edge jitter error (maybe fixed) : 0 Atom jitter error (maybe fixed) : 0 Drift error (maybe fixed) : 0 Dropped bytes error (maybe fixed) : 0 Duplicated bytes error (maybe fixed) : 0 Inconsistency in error sectors : 0

Track 07 Filename : /Users/joel/freshly_transcoded/1385 - 2005 - Benny Goodman - 1946-1947 [FLAC]/07 - A Gal in Calico.flac Pre-gap length : 00:02:43

Track gain : -6.43 dB Peak : 0.977570 CRC32 hash (test run) : F5521A9D CRC32 hash : F5521A9D CRC32 hash (skip zero) : 3257DDDE AccurateRip signature : 00000000 ->Track not present in AccurateRip database. Statistics Read error : 0 Skipped (treated as error) : 0 Edge jitter error (maybe fixed) : 0 Atom jitter error (maybe fixed) : 0 Drift error (maybe fixed) : 0 Dropped bytes error (maybe fixed) : 0 Duplicated bytes error (maybe fixed) : 0 Inconsistency in error sectors : 0

Track 08 Filename : /Users/joel/freshly_transcoded/1385 - 2005 - Benny Goodman - 1946-1947 [FLAC]/08 - I'll Aways Be in Love with You.flac Pre-gap length : 00:02:42

Track gain : -6.75 dB Peak : 0.966370 CRC32 hash (test run) : 2F636E77 CRC32 hash : 2F636E77 CRC32 hash (skip zero) : E3DDFCD6 AccurateRip signature : 00000000 ->Track not present in AccurateRip database. Statistics Read error : 0 Skipped (treated as error) : 0 Edge jitter error (maybe fixed) : 0 Atom jitter error (maybe fixed) : 0 Drift error (maybe fixed) : 0 Dropped bytes error (maybe fixed) : 0 Duplicated bytes error (maybe fixed) : 0 Inconsistency in error sectors : 0

Track 09 Filename : /Users/joel/freshly_transcoded/1385 - 2005 - Benny Goodman - 1946-1947 [FLAC]/09 - Honeysuckle Rose.flac Pre-gap length : 00:02:43

Track gain : -5.60 dB Peak : 0.999908 CRC32 hash (test run) : 5B7F5F10 CRC32 hash : 5B7F5F10 CRC32 hash (skip zero) : 677D39BC AccurateRip signature : 00000000 ->Track not present in AccurateRip database. Statistics Read error : 0 Skipped (treated as error) : 0 Edge jitter error (maybe fixed) : 0 Atom jitter error (maybe fixed) : 0 Drift error (maybe fixed) : 0 Dropped bytes error (maybe fixed) : 0 Duplicated bytes error (maybe fixed) : 0 Inconsistency in error sectors : 0

Track 10 Filename : /Users/joel/freshly_transcoded/1385 - 2005 - Benny Goodman - 1946-1947 [FLAC]/10 - Lonely Moments.flac Pre-gap length : 00:02:42

Track gain : -7.91 dB Peak : 0.955322 CRC32 hash (test run) : 616B26C5 CRC32 hash : 616B26C5 CRC32 hash (skip zero) : 69B53BEB AccurateRip signature : 00000000 ->Track not present in AccurateRip database. Statistics Read error : 0 Skipped (treated as error) : 0 Edge jitter error (maybe fixed) : 0 Atom jitter error (maybe fixed) : 0 Drift error (maybe fixed) : 0 Dropped bytes error (maybe fixed) : 0 Duplicated bytes error (maybe fixed) : 0 Inconsistency in error sectors : 0

Track 11 Filename : /Users/joel/freshly_transcoded/1385 - 2005 - Benny Goodman - 1946-1947 [FLAC]/11 - It Takes Time.flac Pre-gap length : 00:02:43

Track gain : -7.11 dB Peak : 0.977570 CRC32 hash (test run) : 320530BB CRC32 hash : 320530BB CRC32 hash (skip zero) : 1F633068 AccurateRip signature : 00000000 ->Track not present in AccurateRip database. Statistics Read error : 0 Skipped (treated as error) : 0 Edge jitter error (maybe fixed) : 0 Atom jitter error (maybe fixed) : 0 Drift error (maybe fixed) : 0 Dropped bytes error (maybe fixed) : 0 Duplicated bytes error (maybe fixed) : 0 Inconsistency in error sectors : 0

Track 12 Filename : /Users/joel/freshly_transcoded/1385 - 2005 - Benny Goodman - 1946-1947 [FLAC]/12 - Moon-Faced, Starry-Eyed.flac Pre-gap length : 00:02:43

Track gain : -6.05 dB Peak : 0.955292 CRC32 hash (test run) : 38B8435E CRC32 hash : 38B8435E CRC32 hash (skip zero) : 8A72769B AccurateRip signature : 00000000 ->Track not present in AccurateRip database. Statistics Read error : 0 Skipped (treated as error) : 0 Edge jitter error (maybe fixed) : 0 Atom jitter error (maybe fixed) : 0 Drift error (maybe fixed) : 0 Dropped bytes error (maybe fixed) : 0 Duplicated bytes error (maybe fixed) : 0 Inconsistency in error sectors : 0

Track 13 Filename : /Users/joel/freshly_transcoded/1385 - 2005 - Benny Goodman - 1946-1947 [FLAC]/13 - Whistle Blues.flac Pre-gap length : 00:02:43

Track gain : -7.21 dB Peak : 0.977539 CRC32 hash (test run) : 1228C4CA CRC32 hash : 1228C4CA CRC32 hash (skip zero) : 8D37713B AccurateRip signature : 00000000 ->Track not present in AccurateRip database. Statistics Read error : 0 Skipped (treated as error) : 0 Edge jitter error (maybe fixed) : 0 Atom jitter error (maybe fixed) : 0 Drift error (maybe fixed) : 0 Dropped bytes error (maybe fixed) : 0 Duplicated bytes error (maybe fixed) : 0 Inconsistency in error sectors : 0

Track 14 Filename : /Users/joel/freshly_transcoded/1385 - 2005 - Benny Goodman - 1946-1947 [FLAC]/14 - Moon-Faced, Starry-Eyed.flac Pre-gap length : 00:02:42

Track gain : -6.20 dB Peak : 0.955292 CRC32 hash (test run) : 530186C9 CRC32 hash : 530186C9 CRC32 hash (skip zero) : A9EFC27D AccurateRip signature : 00000000 ->Track not present in AccurateRip database. Statistics Read error : 0 Skipped (treated as error) : 0 Edge jitter error (maybe fixed) : 0 Atom jitter error (maybe fixed) : 0 Drift error (maybe fixed) : 0 Dropped bytes error (maybe fixed) : 0 Duplicated bytes error (maybe fixed) : 0 Inconsistency in error sectors : 0

Track 15 Filename : /Users/joel/freshly_transcoded/1385 - 2005 - Benny Goodman - 1946-1947 [FLAC]/15 - Sweet Georgia Brown.flac Pre-gap length : 00:02:42

Track gain : -4.96 dB Peak : 0.901886 CRC32 hash (test run) : AE2A8EE8 CRC32 hash : AE2A8EE8 CRC32 hash (skip zero) : C87812B1 AccurateRip signature : 00000000 ->Track not present in AccurateRip database. Statistics Read error : 0 Skipped (treated as error) : 0 Edge jitter error (maybe fixed) : 0 Atom jitter error (maybe fixed) : 0 Drift error (maybe fixed) : 0 Dropped bytes error (maybe fixed) : 0 Duplicated bytes error (maybe fixed) : 0 Inconsistency in error sectors : 0

Track 16 Filename : /Users/joel/freshly_transcoded/1385 - 2005 - Benny Goodman - 1946-1947 [FLAC]/16 - I'll Aways Be in Love with You.flac Pre-gap length : 00:02:42

Track gain : -4.79 dB Peak : 0.999908 CRC32 hash (test run) : 918AA808 CRC32 hash : 918AA808 CRC32 hash (skip zero) : 66D9BE1F AccurateRip signature : 00000000 ->Track not present in AccurateRip database. Statistics Read error : 0 Skipped (treated as error) : 0 Edge jitter error (maybe fixed) : 0 Atom jitter error (maybe fixed) : 0 Drift error (maybe fixed) : 0 Dropped bytes error (maybe fixed) : 0 Duplicated bytes error (maybe fixed) : 0 Inconsistency in error sectors : 0

Track 17 Filename : /Users/joel/freshly_transcoded/1385 - 2005 - Benny Goodman - 1946-1947 [FLAC]/17 - Sweet Lorraine.flac Pre-gap length : 00:02:42

Track gain : -4.11 dB Peak : 0.999939 CRC32 hash (test run) : 50274A6C CRC32 hash : 50274A6C CRC32 hash (skip zero) : 18865B7B AccurateRip signature : 00000000 ->Track not present in AccurateRip database. Statistics Read error : 0 Skipped (treated as error) : 0 Edge jitter error (maybe fixed) : 0 Atom jitter error (maybe fixed) : 0 Drift error (maybe fixed) : 0 Dropped bytes error (maybe fixed) : 0 Duplicated bytes error (maybe fixed) : 0 Inconsistency in error sectors : 0

Track 18 Filename : /Users/joel/freshly_transcoded/1385 - 2005 - Benny Goodman - 1946-1947 [FLAC]/18 - St. Louis Blues.flac Pre-gap length : 00:02:43

Track gain : -6.08 dB Peak : 0.999969 CRC32 hash (test run) : DDDDB54A CRC32 hash : DDDDB54A CRC32 hash (skip zero) : 62071BF2 AccurateRip signature : 00000000 ->Track not present in AccurateRip database. Statistics Read error : 0 Skipped (treated as error) : 0 Edge jitter error (maybe fixed) : 0 Atom jitter error (maybe fixed) : 0 Drift error (maybe fixed) : 0 Dropped bytes error (maybe fixed) : 0 Duplicated bytes error (maybe fixed) : 0 Inconsistency in error sectors : 0

Track 19 Filename : /Users/joel/freshly_transcoded/1385 - 2005 - Benny Goodman - 1946-1947 [FLAC]/19 - I Know That You Know.flac Pre-gap length : 00:02:43

Track gain : -7.34 dB Peak : 0.933533 CRC32 hash (test run) : FC5D6D12 CRC32 hash : FC5D6D12 CRC32 hash (skip zero) : ABC7E74A AccurateRip signature : 00000000 ->Track not present in AccurateRip database. Statistics Read error : 0 Skipped (treated as error) : 0 Edge jitter error (maybe fixed) : 0 Atom jitter error (maybe fixed) : 0 Drift error (maybe fixed) : 0 Dropped bytes error (maybe fixed) : 0 Duplicated bytes error (maybe fixed) : 0 Inconsistency in error sectors : 0

Track 20 Filename : /Users/joel/freshly_transcoded/1385 - 2005 - Benny Goodman - 1946-1947 [FLAC]/20 - I Can't Get Started.flac Pre-gap length : 00:02:42

Track gain : -7.57 dB Peak : 0.999908 CRC32 hash (test run) : F82FD3C3 CRC32 hash : F82FD3C3 CRC32 hash (skip zero) : 8672C854 AccurateRip signature : 00000000 ->Track not present in AccurateRip database. Statistics Read error : 0 Skipped (treated as error) : 0 Edge jitter error (maybe fixed) : 0 Atom jitter error (maybe fixed) : 0 Drift error (maybe fixed) : 0 Dropped bytes error (maybe fixed) : 0 Duplicated bytes error (maybe fixed) : 0 Inconsistency in error sectors : 0

Track 21 Filename : /Users/joel/freshly_transcoded/1385 - 2005 - Benny Goodman - 1946-1947 [FLAC]/21 - The Lonesome Road.flac Pre-gap length : 00:02:42

Track gain : -5.74 dB Peak : 0.977570 CRC32 hash (test run) : F164730C CRC32 hash : F164730C CRC32 hash (skip zero) : C4125967 AccurateRip signature : 00000000 ->Track not present in AccurateRip database. Statistics Read error : 0 Skipped (treated as error) : 0 Edge jitter error (maybe fixed) : 0 Atom jitter error (maybe fixed) : 0 Drift error (maybe fixed) : 0 Dropped bytes error (maybe fixed) : 0 Duplicated bytes error (maybe fixed) : 0 Inconsistency in error sectors : 0

Track 22 Filename : /Users/joel/freshly_transcoded/1385 - 2005 - Benny Goodman - 1946-1947 [FLAC]/22 - Fine and Dandy.flac Pre-gap length : 00:02:43

Track gain : -3.94 dB Peak : 0.999939 CRC32 hash (test run) : 777D0E14 CRC32 hash : 777D0E14 CRC32 hash (skip zero) : 835A2B5C AccurateRip signature : 00000000 ->Track not present in AccurateRip database. Statistics Read error : 0 Skipped (treated as error) : 0 Edge jitter error (maybe fixed) : 0 Atom jitter error (maybe fixed) : 0 Drift error (maybe fixed) : 0 Dropped bytes error (maybe fixed) : 0 Duplicated bytes error (maybe fixed) : 0 Inconsistency in error sectors : 0

Track 23 Filename : /Users/joel/freshly_transcoded/1385 - 2005 - Benny Goodman - 1946-1947 [FLAC]/23 - The Bannister Slide.flac Pre-gap length : 00:02:42

Track gain : -5.92 dB Peak : 0.999939 CRC32 hash (test run) : 00D921F3 CRC32 hash : 00D921F3 CRC32 hash (skip zero) : 8BEE3CCE AccurateRip signature : 00000000 ->Track not present in AccurateRip database. Statistics Read error : 0 Skipped (treated as error) : 0 Edge jitter error (maybe fixed) : 0 Atom jitter error (maybe fixed) : 4 Drift error (maybe fixed) : 0 Dropped bytes error (maybe fixed) : 0 Duplicated bytes error (maybe fixed) : 0 Inconsistency in error sectors : 0

Track 24 Filename : /Users/joel/freshly_transcoded/1385 - 2005 - Benny Goodman - 1946-1947 [FLAC]/24 - Eight, Nine and Ten.flac Pre-gap length : 00:02:43

Track gain : -6.30 dB Peak : 0.966339 CRC32 hash (test run) : 8F24C409 CRC32 hash : 8F24C409 CRC32 hash (skip zero) : 84146D81 AccurateRip signature : 00000000 ->Track not present in AccurateRip database. Statistics Read error : 0 Skipped (treated as error) : 0 Edge jitter error (maybe fixed) : 0 Atom jitter error (maybe fixed) : 15 Drift error (maybe fixed) : 0 Dropped bytes error (maybe fixed) : 0 Duplicated bytes error (maybe fixed) : 0 Inconsistency in error sectors : 0

Track 25 Filename : /Users/joel/freshly_transcoded/1385 - 2005 - Benny Goodman - 1946-1947 [FLAC]/25 - I Never Knew.flac Pre-gap length : 00:02:42

Track gain : -6.01 dB Peak : 0.944397 CRC32 hash (test run) : 4939E273 CRC32 hash : 4939E273 CRC32 hash (skip zero) : 72F6D093 AccurateRip signature : 00000000 ->Track not present in AccurateRip database. Statistics Read error : 0 Skipped (treated as error) : 0 Edge jitter error (maybe fixed) : 0 Atom jitter error (maybe fixed) : 0 Drift error (maybe fixed) : 0 Dropped bytes error (maybe fixed) : 0 Duplicated bytes error (maybe fixed) : 0 Inconsistency in error sectors : 0

No errors occurred

End of status report
  
REM DATE 2005REM GENRE JazzREM DISCNUMBER 1REM TOTALDISCS 1REM DISCID 7611D919PERFORMER "Benny Goodman And His Orchestra"TITLE "1946-1947 {Chronological Classics, 1385}"FILE "01. Put That Kiss Back Where You Found It.flac" WAVE TRACK 01 AUDIO TITLE "Put That Kiss Back Where You Found It" INDEX 01 00:00:00 TRACK 02 AUDIO TITLE "Benjie's Bubble" INDEX 00 03:16:52FILE "02. Benjie's Bubble.flac" WAVE INDEX 01 00:00:00 TRACK 03 AUDIO TITLE "Hora Stacato" INDEX 00 02:44:05FILE "03. Hora Stacato.flac" WAVE INDEX 01 00:00:00 TRACK 04 AUDIO TITLE "Poor Butterfly" INDEX 00 02:37:28FILE "04. Poor Butterfly.flac" WAVE INDEX 01 00:00:00 TRACK 05 AUDIO TITLE "That's The Beginning Of The End" INDEX 00 03:21:08FILE "05. That's The Beginning Of The End.flac" WAVE INDEX 01 00:00:00 TRACK 06 AUDIO TITLE "Man Here Plays Fine Piano" INDEX 00 03:18:05FILE "06. Man Here Plays Fine Piano.flac" WAVE INDEX 01 00:00:00 TRACK 07 AUDIO TITLE "A Gal In Calico" INDEX 00 03:05:72FILE "07. A Gal In Calico.flac" WAVE INDEX 01 00:00:00 TRACK 08 AUDIO TITLE "I'll Always Be In Love With You" INDEX 00 02:42:30FILE "08. I'll Always Be In Love With You.flac" WAVE INDEX 01 00:00:00 TRACK 09 AUDIO TITLE "Honeysuckle Rose" INDEX 00 03:12:20FILE "09. Honeysuckle Rose.flac" WAVE INDEX 01 00:00:00 TRACK 10 AUDIO TITLE "Lonely Moments" INDEX 00 03:15:65FILE "10. Lonely Moments.flac" WAVE INDEX 01 00:00:00 TRACK 11 AUDIO TITLE "It Takes Time" INDEX 00 03:06:40FILE "11. It Takes Time.flac" WAVE INDEX 01 00:00:00 TRACK 12 AUDIO TITLE "Moon-Faced, Starry-Eyed" INDEX 00 03:11:32FILE "12. Moon-Faced, Starry-Eyed.flac" WAVE INDEX 01 00:00:00 TRACK 13 AUDIO TITLE "Whistle Blues" INDEX 00 03:04:22FILE "13. Whistle Blues.flac" WAVE INDEX 01 00:00:00 TRACK 14 AUDIO TITLE "Moon-Faced, Starry-Eyed" INDEX 00 02:46:30FILE "14. Moon-Faced, Starry-Eyed.flac" WAVE INDEX 01 00:00:00 TRACK 15 AUDIO TITLE "Sweet Georgia Brown" INDEX 00 03:04:58FILE "15. Sweet Georgia Brown.flac" WAVE INDEX 01 00:00:00 TRACK 16 AUDIO TITLE "I'll Always Be In Love With You" INDEX 00 02:49:55FILE "16. I'll Always Be In Love With You.flac" WAVE INDEX 01 00:00:00 TRACK 17 AUDIO TITLE "Sweet Lorraine" INDEX 00 03:08:31FILE "17. Sweet Lorraine.flac" WAVE INDEX 01 00:00:00 TRACK 18 AUDIO TITLE "St. Louis Blues" INDEX 00 03:02:45FILE "18. St. Louis Blues.flac" WAVE INDEX 01 00:00:00 TRACK 19 AUDIO TITLE "I Know That You Know" INDEX 00 02:58:32FILE "19. I Know That You Know.flac" WAVE INDEX 01 00:00:00 TRACK 20 AUDIO TITLE "I Can't Get Started" INDEX 00 02:39:30FILE "20. I Can't Get Started.flac" WAVE INDEX 01 00:00:00 TRACK 21 AUDIO TITLE "The Lonesome Road" INDEX 00 03:15:33FILE "21. The Lonesome Road.flac" WAVE INDEX 01 00:00:00 TRACK 22 AUDIO TITLE "Fine And Dandy" INDEX 00 02:47:30FILE "22. Fine And Dandy.flac" WAVE INDEX 01 00:00:00 TRACK 23 AUDIO TITLE "The Bannister Slide" INDEX 00 03:03:15FILE "23. The Bannister Slide.flac" WAVE INDEX 01 00:00:00 TRACK 24 AUDIO TITLE "Eight, Nine And Ten" INDEX 00 02:44:20FILE "24. Eight, Nine And Ten.flac" WAVE INDEX 01 00:00:00 TRACK 25 AUDIO TITLE "I Never Knew" INDEX 00 02:55:30FILE "25. I Never Knew.flac" WAVE INDEX 01 00:00:00
  
AUDIOCHECKER v2.0 beta (build 457) - by Dester - <a href="mailto:opdester@freemail.hu" class="postLink">opdester@freemail.hu</a>~~~~~~~~~~~~~~~~~~~~~~~~~~~~~~~~~~-=== DO NOT EDIT THIS FILE! ===-

Path: ...\Benny Goodman - 2005 - 1946-1947 (Chronological Classics 1385) [FLAC]

01 -=- 01. Put That Kiss Back Where You Found It.flac -=- CDDA (43%)02 -=- 02. Benjie's Bubble.flac -=- CDDA (100%)03 -=- 03. Hora Stacato.flac -=- CDDA (100%)04 -=- 04. Poor Butterfly.flac -=- MPEG (90%)05 -=- 05. That's The Beginning Of The End.flac -=- CDDA (43%)06 -=- 06. Man Here Plasys Fine Piano.flac -=- CDDA (92%)07 -=- 07. A Gal In Calico.flac -=- CDDA (62%)08 -=- 08. I'll Always Be In Love With You.flac -=- CDDA (100%)09 -=- 09. Honeysuckle Rose.flac -=- CDDA (100%)10 -=- 10. Lonely Moments.flac -=- CDDA (100%)11 -=- 11. It Takes Time.flac -=- CDDA (87%)12 -=- 12. Moon-Faced, Starry-Eyed.flac -=- CDDA (99%)13 -=- 13. Whistle Blues.flac -=- CDDA (85%)14 -=- 14. Moon-Faced, Starry-Eyed.flac -=- CDDA (87%)15 -=- 15. Sweet Georgia Brown.flac -=- CDDA (100%)16 -=- 16. I'll Always Be In Love With You.flac -=- CDDA (99%)17 -=- 17. Sweet Lorraine.flac -=- MPEG (92%)18 -=- 18. St. Louis Blues.flac -=- CDDA (100%)19 -=- 19. I Know That You Know.flac -=- CDDA (100%)20 -=- 20. I Can't Get Started.flac -=- CDDA (92%)21 -=- 21. The Lonesome Road.flac -=- CDDA (100%)22 -=- 22. Fine And Dandy.flac -=- CDDA (99%)23 -=- 23. The Bannister Slide.flac -=- CDDA (99%)24 -=- 24. Eight, Nine And Ten.flac -=- CDDA (100%)25 -=- 25. I Never Knew.flac -=- CDDA (62%)

Summary 82,68% CDDA

51853012



Трекер:  [ 25-Фев-2012 10:16 ]

  

Скачать .torrent

Размер .torrent файла 15 KB


Размер: 167 MB
Хэш (hash) релиза: c814bf0e104b4818e624803866580c5cd5b05279

Еще никто не оставлял запись к записи скачать торрент Benny Goodman And His Orchestra - 1946-1947 {Chronological Classics, 1385} - 2005, FLAC . Будь первым!

!Обратная связь