Скачать через торрент музыку Erroll Garner - 1944-1945 {The Chronological Classics, 873} - 1996, FLAC бесплатно без регистрации torrent

Если у вас наблюдаются проблемы со скриншотами, переходом по ссылками, скачиванием торрентов - проблемы в блокировщике рекламы AdBlock. #хорошегоДня!


Статистика раздачи
Размер:  214 MB   |    Зарегистрирован:  5 лет 7 месяцев   |    .torrent скачан:  39 раз   |   
Раздают:  1  
   
Загрузка...
 
Автор Сообщение

Umakiro

avatar Umakiro


Erroll Garner – 1944-1945 {The Chronological Classics, 873}

Жанр: Bop
Год издания диска: 1996
Издатель (лейбл): Classics
Номер по каталогу: 873
Аудиокодек: FLAC (*.flac)
Тип рипа: tracks+.cue
Битрейт аудио: lossless
Продолжительность: 70:53
Источник: вата
Сканы: есть, но мало и мелкие
 
Треклист:
01. Gaslight (10:16)
02. Red Cross (7:27)
03. He Pulled A Fast One (Part 1) (2:50)
04. He Pulled A Fast One (Part 2) (3:42)
05. Meatless Pay Day (Parts 1 & 2) (10:31)
06. Geronimo (Part 1) (4:18)
07. Geronimo (Part 2) (4:37)
08. Keep Happy Baby (2:10)
09. White Rose Bounce (3:01)
10. Twistin' The Cat's Tail (2:56)
11. Movin' Around (3:09)
12. Night And Day (3:19)
13. Sweet Lorraine (3:12)
14. Yesterdays (3:01)
15. Loot To Boot (3:09)
16. Gaslight (3:16)
  
Exact Audio Copy V1.0 beta 3 from 29. August 2011

EAC extraction logfile from 20. November 2011, 2:31

Errol Garner / Classics 1944-1945

Used drive : HL-DT-STDVDRAM GT20N Adapter: 2 ID: 0

Read mode : SecureUtilize accurate stream : YesDefeat audio cache : YesMake use of C2 pointers : No

Read offset correction : 667Overread into Lead-In and Lead-Out : NoFill up missing offset samples with silence : YesDelete leading and trailing silent blocks : NoNull samples used in CRC calculations : YesUsed interface : Native Win32 interface for Win NT & 2000Gap handling : Appended to previous track

Used output format : User Defined EncoderSelected bitrate : 1024 kBit/sQuality : HighAdd ID3 tag : NoCommand line compressor : C:\Program Files (x86)\Exact Audio Copy\Flac\flac.exeAdditional command line options : -8 -V -T "ARTIST=%artist%" -T "TITLE=%title%" -T "ALBUM=%albumtitle%" -T "DATE=%year%" -T "TRACKNUMBER=%tracknr%" -T "GENRE=%genre%" -T "PERFORMER=%albuminterpret%" -T "COMPOSER=%composer%" %haslyrics%--tag-from-file=LYRICS="%lyricsfile%"%haslyrics% -T "ALBUMARTIST=%albumartist%" -T "DISCNUMBER=%cdnumber%" -T "TOTALDISCS=%totalcds%" -T "TOTALTRACKS=%numtracks%" -T "COMMENT=%comment%" %source% -o %dest%

TOC of the extracted CD

Track | Start | Length | Start sector | End sector --------------------------------------------------------- 1 | 0:00.32 | 10:16.23 | 32 | 46254 2 | 10:16.55 | 7:26.47 | 46255 | 79751 3 | 17:43.27 | 2:50.20 | 79752 | 92521 4 | 20:33.47 | 3:42.25 | 92522 | 109196 5 | 24:15.72 | 10:30.70 | 109197 | 156516 6 | 34:46.67 | 4:17.55 | 156517 | 175846 7 | 39:04.47 | 4:37.05 | 175847 | 196626 8 | 43:41.52 | 2:09.63 | 196627 | 206364 9 | 45:51.40 | 3:00.62 | 206365 | 219926 10 | 48:52.27 | 2:55.63 | 219927 | 233114 11 | 51:48.15 | 3:08.52 | 233115 | 247266 12 | 54:56.67 | 3:18.63 | 247267 | 262179 13 | 58:15.55 | 3:11.72 | 262180 | 276576 14 | 61:27.52 | 3:00.53 | 276577 | 290129 15 | 64:28.30 | 3:08.47 | 290130 | 304276 16 | 67:37.02 | 3:15.70 | 304277 | 318971

Track 1

Filename E:\EAC Rips\Erroll Garner - 1944-1945 (1996) [FLAC] {Chronological Classics 873}\01 - Gaslight.wav

Pre-gap length 0:00:02.42

Peak level 86.8 % Extraction speed 2.9 X Track quality 100.0 % Test CRC 9B4AFA06 Copy CRC 9B4AFA06 Accurately ripped (confidence 2) [AAFFBCDD] (AR v1) Copy OK

Track 2

Filename E:\EAC Rips\Erroll Garner - 1944-1945 (1996) [FLAC] {Chronological Classics 873}\02 - Red Cross.wav

Pre-gap length 0:00:02.60

Peak level 80.8 % Extraction speed 3.3 X Track quality 100.0 % Test CRC 9FA358E4 Copy CRC 9FA358E4 Accurately ripped (confidence 2) [06A76EAF] (AR v1) Copy OK

Track 3

Filename E:\EAC Rips\Erroll Garner - 1944-1945 (1996) [FLAC] {Chronological Classics 873}\03 - He Pulled A Fast One, part one.wav

Pre-gap length 0:00:02.36

Peak level 81.0 % Extraction speed 3.1 X Track quality 100.0 % Test CRC A98724DB Copy CRC A98724DB Accurately ripped (confidence 2) [41142374] (AR v1) Copy OK

Track 4

Filename E:\EAC Rips\Erroll Garner - 1944-1945 (1996) [FLAC] {Chronological Classics 873}\04 - He Pulled A Fast One, part two.wav

Pre-gap length 0:00:02.13

Peak level 78.0 % Extraction speed 3.4 X Track quality 100.0 % Test CRC 477503ED Copy CRC 477503ED Accurately ripped (confidence 2) [2E72E2EE] (AR v1) Copy OK

Track 5

Filename E:\EAC Rips\Erroll Garner - 1944-1945 (1996) [FLAC] {Chronological Classics 873}\05 - Meatless Pay Day, parts one & two.wav

Pre-gap length 0:00:02.46

Peak level 65.0 % Extraction speed 4.2 X Track quality 100.0 % Test CRC 42427F2B Copy CRC 42427F2B Accurately ripped (confidence 2) [82E6E202] (AR v1) Copy OK

Track 6

Filename E:\EAC Rips\Erroll Garner - 1944-1945 (1996) [FLAC] {Chronological Classics 873}\06 - Geronimo, part one.wav

Pre-gap length 0:00:01.36

Peak level 71.9 % Extraction speed 4.2 X Track quality 100.0 % Test CRC 0179D38C Copy CRC 0179D38C Accurately ripped (confidence 2) [360BE97E] (AR v1) Copy OK

Track 7

Filename E:\EAC Rips\Erroll Garner - 1944-1945 (1996) [FLAC] {Chronological Classics 873}\07 - Geronimo, part two.wav

Pre-gap length 0:00:02.00

Peak level 77.8 % Extraction speed 4.3 X Track quality 100.0 % Test CRC 7F9C41B6 Copy CRC 7F9C41B6 Accurately ripped (confidence 2) [FA58100A] (AR v1) Copy OK

Track 8

Filename E:\EAC Rips\Erroll Garner - 1944-1945 (1996) [FLAC] {Chronological Classics 873}\08 - Keep Happy Baby.wav

Pre-gap length 0:00:01.89

Peak level 76.3 % Extraction speed 3.9 X Track quality 100.0 % Test CRC 2B3E7213 Copy CRC 2B3E7213 Accurately ripped (confidence 2) [E68C1A80] (AR v1) Copy OK

Track 9

Filename E:\EAC Rips\Erroll Garner - 1944-1945 (1996) [FLAC] {Chronological Classics 873}\09 - White Rose Bounce.wav

Pre-gap length 0:00:02.17

Peak level 90.1 % Extraction speed 4.1 X Track quality 100.0 % Test CRC 62D9A8FF Copy CRC 62D9A8FF Accurately ripped (confidence 2) [EF3552FA] (AR v1) Copy OK

Track 10

Filename E:\EAC Rips\Erroll Garner - 1944-1945 (1996) [FLAC] {Chronological Classics 873}\10 - Twistin' The Cat's Tail.wav

Pre-gap length 0:00:02.26

Peak level 89.7 % Extraction speed 4.2 X Track quality 100.0 % Test CRC 5375C899 Copy CRC 5375C899 Accurately ripped (confidence 2) [31A97B7E] (AR v1) Copy OK

Track 11

Filename E:\EAC Rips\Erroll Garner - 1944-1945 (1996) [FLAC] {Chronological Classics 873}\11 - Movin' Around.wav

Pre-gap length 0:00:02.06

Peak level 97.7 % Extraction speed 4.5 X Track quality 100.0 % Test CRC A11B7B15 Copy CRC A11B7B15 Accurately ripped (confidence 2) [CAD218D2] (AR v1) Copy OK

Track 12

Filename E:\EAC Rips\Erroll Garner - 1944-1945 (1996) [FLAC] {Chronological Classics 873}\12 - Night And Day.wav

Pre-gap length 0:00:02.20

Peak level 84.5 % Extraction speed 3.1 X Track quality 99.9 % Test CRC 51F4C0B0 Copy CRC 51F4C0B0 Accurately ripped (confidence 2) [4F02A7FE] (AR v1) Copy OK

Track 13

Filename E:\EAC Rips\Erroll Garner - 1944-1945 (1996) [FLAC] {Chronological Classics 873}\13 - Sweet Lorraine.wav

Pre-gap length 0:00:02.13

Peak level 61.9 % Extraction speed 2.4 X Track quality 100.0 % Test CRC F6295376 Copy CRC F6295376 Accurately ripped (confidence 2) [CE6EEE9A] (AR v1) Copy OK

Track 14

Filename E:\EAC Rips\Erroll Garner - 1944-1945 (1996) [FLAC] {Chronological Classics 873}\14 - Yesterdays.wav

Pre-gap length 0:00:02.02

Peak level 66.1 % Extraction speed 2.4 X Track quality 100.0 % Test CRC 6E2EF552 Copy CRC 6E2EF552 Track not present in AccurateRip database Copy OK

Track 15

Filename E:\EAC Rips\Erroll Garner - 1944-1945 (1996) [FLAC] {Chronological Classics 873}\15 - Loot To Boot.wav

Pre-gap length 0:00:02.00

Peak level 59.7 % Extraction speed 2.5 X Track quality 100.0 % Test CRC A291583D Copy CRC A291583D Accurately ripped (confidence 2) [0BB2284F] (AR v1) Copy OK

Track 16

Filename E:\EAC Rips\Erroll Garner - 1944-1945 (1996) [FLAC] {Chronological Classics 873}\16 - Gaslight 2.wav

Pre-gap length 0:00:02.26

Peak level 53.7 % Extraction speed 2.5 X Track quality 100.0 % Test CRC 96687289 Copy CRC 96687289 Accurately ripped (confidence 2) [0D9A2C3A] (AR v1) Copy OK

15 track(s) accurately ripped 1 track(s) not present in the AccurateRip database

Some tracks could not be verified as accurate

No errors occurred

End of status report

==== Log checksum CA615D3EFFFB63D316509B4AE059CC66D7F459BF58DEF1AA03B42293B50E39EA ====
  
REM GENRE JazzREM DATE 1996REM DISCID FA109C10REM COMMENT "ExactAudioCopy v1.0b3"CATALOG 0000000000000PERFORMER "Errol Garner"TITLE "1944-1945 {Chronological Classics, 873}"FILE "01. Gaslight.flac" WAVE TRACK 01 AUDIO TITLE "Gaslight" PERFORMER "Errol Garner" PREGAP 00:00:32 INDEX 01 00:00:00 TRACK 02 AUDIO TITLE "Red Cross" PERFORMER "Errol Garner" INDEX 00 10:13:53FILE "02. Red Cross.flac" WAVE INDEX 01 00:00:00 TRACK 03 AUDIO TITLE "He Pulled A Fast One (Part 1)" PERFORMER "Errol Garner" INDEX 00 07:24:20FILE "03. He Pulled A Fast One (Part 1).flac" WAVE INDEX 01 00:00:00 TRACK 04 AUDIO TITLE "He Pulled A Fast One (Part 2)" PERFORMER "Errol Garner" INDEX 00 02:48:10FILE "04. He Pulled A Fast One (Part 2).flac" WAVE INDEX 01 00:00:00 TRACK 05 AUDIO TITLE "Meatless Pay Day (Parts 1 & 2)" PERFORMER "Errol Garner" INDEX 00 03:39:65FILE "05. Meatless Pay Day (Parts 1 & 2).flac" WAVE INDEX 01 00:00:00 TRACK 06 AUDIO TITLE "Geronimo (Part 1)" PERFORMER "Errol Garner" INDEX 00 10:29:43FILE "06. Geronimo (Part 1).flac" WAVE INDEX 01 00:00:00 TRACK 07 AUDIO TITLE "Geronimo (Part 2)" PERFORMER "Errol Garner" INDEX 00 04:15:55FILE "07. Geronimo (Part 2).flac" WAVE INDEX 01 00:00:00 TRACK 08 AUDIO TITLE "Keep Happy Baby" PERFORMER "Errol Garner" INDEX 00 04:35:13FILE "08. Keep Happy Baby.flac" WAVE INDEX 01 00:00:00 TRACK 09 AUDIO TITLE "White Rose Bounce" PERFORMER "Errol Garner" INDEX 00 02:07:50FILE "09. White Rose Bounce.flac" WAVE INDEX 01 00:00:00 TRACK 10 AUDIO TITLE "Twistin' The Cat's Tail" PERFORMER "Errol Garner" INDEX 00 02:58:42FILE "10. Twistin' The Cat's Tail.flac" WAVE INDEX 01 00:00:00 TRACK 11 AUDIO TITLE "Movin' Around" PERFORMER "Errol Garner" INDEX 00 02:53:58FILE "11. Movin' Around.flac" WAVE INDEX 01 00:00:00 TRACK 12 AUDIO TITLE "Night And Day" PERFORMER "Errol Garner" INDEX 00 03:06:37FILE "12. Night And Day.flac" WAVE INDEX 01 00:00:00 TRACK 13 AUDIO TITLE "Sweet Lorraine" PERFORMER "Errol Garner" INDEX 00 03:16:53FILE "13. Sweet Lorraine.flac" WAVE INDEX 01 00:00:00 TRACK 14 AUDIO TITLE "Yesterdays" PERFORMER "Errol Garner" INDEX 00 03:09:70FILE "14. Yesterdays.flac" WAVE INDEX 01 00:00:00 TRACK 15 AUDIO TITLE "Loot To Boot" PERFORMER "Errol Garner" INDEX 00 02:58:53FILE "15. Loot To Boot.flac" WAVE INDEX 01 00:00:00 TRACK 16 AUDIO TITLE "Gaslight" PERFORMER "Errol Garner" INDEX 00 03:06:27FILE "16. Gaslight.flac" WAVE INDEX 01 00:00:00



Трекер:  [ 25-Фев-2012 10:16 ]

  

Скачать .torrent

Размер .torrent файла 18 KB


Размер: 214 MB
Хэш (hash) релиза: 6e7ccd50c3c76c8a9dcf9d9339fd7c6da54b6f12

Еще никто не оставлял запись к записи скачать торрент Erroll Garner - 1944-1945 {The Chronological Classics, 873} - 1996, FLAC . Будь первым!

!Обратная связь