Скачать через торрент музыку Florian Ross Quintet — Seasons And Places — 1998, FLAC бесплатно без регистрации torrent

Если у вас наблюдаются проблемы со скриншотами, переходом по ссылками, скачиванием торрентов - проблемы в блокировщике рекламы AdBlock. #хорошегоДня!


Статистика раздачи
Размер:  361 MB   |    Зарегистрирован:  5 лет 7 месяцев   |    .torrent скачан:  31 раз   |   
Раздают:  1  
   
Загрузка...
 
Автор Сообщение

Umakiro

avatar Umakiro


Florian Ross Quintet — Seasons And Places

Жанр: Hard Bop, Post-Bop
Год издания диска: 1998
Лейбл: Naxos Jazz
Номер по каталогу: 86029-2
Аудио кодек: FLAC (*.flac)
Тип рипа: image+.cue
Битрейт аудио: lossless
Продолжительность: 58:34
Релизер: Speedyclick
Сканы есть

Треклист:
01. By Any Means Necessary (5:26)
02. Blues (5:58)
03. Let Me Do It (Not You) (5:26)
04. Ology Elegy / Neck-tied (7:44)
05. Sea Greene (5:58)
06. In Case You Haven't Heard (6:57)
07. Clapham Junction (6:30)
08. Winteraire (3:27)
09. Rondo #3 (7:36)
10. Hymnus (3:32)
  
Exact Audio Copy V0.99 prebeta 5 from 4. May 2009

EAC extraction logfile from 8. March 2011, 10:29

Florian Ross Quintet / Seasons and Places

Used drive : HL-DT-STDVDRAM GH10N Adapter: 1 ID: 0

Read mode : SecureUtilize accurate stream : YesDefeat audio cache : YesMake use of C2 pointers : No

Read offset correction : 667Overread into Lead-In and Lead-Out : NoFill up missing offset samples with silence : YesDelete leading and trailing silent blocks : NoNull samples used in CRC calculations : YesUsed interface : Native Win32 interface for Win NT & 2000

Used output format : User Defined EncoderSelected bitrate : 896 kBit/sQuality : HighAdd ID3 tag : NoCommand line compressor : C:\Program Files\FLAC\flac.exeAdditional command line options : -V -5 -T "artist=%a" -T "title=%t" -T "album=%g" -T "date=%y" -T "tracknumber=%n" -T "genre=%m" -5 %s

TOC of the extracted CD

Track | Start | Length | Start sector | End sector --------------------------------------------------------- 1 | 0:00.00 | 5:25.42 | 0 | 24416 2 | 5:25.42 | 5:58.30 | 24417 | 51296 3 | 11:23.72 | 5:25.70 | 51297 | 75741 4 | 16:49.67 | 7:44.30 | 75742 | 110571 5 | 24:34.22 | 5:57.40 | 110572 | 137386 6 | 30:31.62 | 6:56.43 | 137387 | 168629 7 | 37:28.30 | 6:30.20 | 168630 | 197899 8 | 43:58.50 | 3:27.02 | 197900 | 213426 9 | 47:25.52 | 7:36.18 | 213427 | 247644 10 | 55:01.70 | 3:32.10 | 247645 | 263554

Range status and errors

Selected range

Filename S:\EAC Rips\Florian Ross Quintet - Seasons And Places\Florian Ross Quintet - Seasons and Places.wav

Peak level 89.1 % Range quality 100.0 % Test CRC C361D307 Copy CRC C361D307 Copy OK

No errors occurred

AccurateRip summary

Track 1 accurately ripped (confidence 2) [5F8C72AE]Track 2 accurately ripped (confidence 2) [08A2099B]Track 3 accurately ripped (confidence 2) [925BF2B7]Track 4 accurately ripped (confidence 2) [C0119E65]Track 5 accurately ripped (confidence 2) [7FB2706A]Track 6 accurately ripped (confidence 2) [414857C8]Track 7 accurately ripped (confidence 2) [06658A13]Track 8 accurately ripped (confidence 2) [C093D1E1]Track 9 accurately ripped (confidence 2) [7F29FE09]Track 10 accurately ripped (confidence 2) [07AB4307]

All tracks accurately ripped

End of status report
  
REM GENRE JazzREM DATE 1998REM DISCID 780DBA0AREM COMMENT "ExactAudioCopy v0.99pb5"PERFORMER "Florian Ross Quintet"TITLE "Seasons And Places"FILE "Florian Ross Quintet - Seasons And Places.flac" WAVE TRACK 01 AUDIO TITLE "By Any Means Necessary" PERFORMER "Florian Ross Quintet" INDEX 01 00:00:00 TRACK 02 AUDIO TITLE "Blues" PERFORMER "Florian Ross Quintet" INDEX 01 05:25:42 TRACK 03 AUDIO TITLE "Let Me Do It (Not You)" PERFORMER "Florian Ross Quintet" INDEX 00 11:21:22 INDEX 01 11:23:72 TRACK 04 AUDIO TITLE "Ology Elegy / Neck-tied" PERFORMER "Florian Ross Quintet" INDEX 00 16:47:37 INDEX 01 16:49:67 TRACK 05 AUDIO TITLE "Sea Greene" PERFORMER "Florian Ross Quintet" INDEX 00 24:32:00 INDEX 01 24:34:22 TRACK 06 AUDIO TITLE "In Case You Haven't Heard" PERFORMER "Florian Ross Quintet" INDEX 00 30:29:10 INDEX 01 30:31:62 TRACK 07 AUDIO TITLE "Clapham Junction" PERFORMER "Florian Ross Quintet" INDEX 00 37:27:62 INDEX 01 37:28:30 TRACK 08 AUDIO TITLE "Winteraire" PERFORMER "Florian Ross Quintet" INDEX 01 43:58:50 TRACK 09 AUDIO TITLE "Rondo #3" PERFORMER "Florian Ross Quintet" INDEX 00 47:23:27 INDEX 01 47:25:52 TRACK 10 AUDIO TITLE "Hymnus" PERFORMER "Florian Ross Quintet" INDEX 01 55:01:70


Трекер:  [ 25-Фев-2012 10:15 ]

  

Скачать .torrent

Размер .torrent файла 8 KB


Размер: 361 MB
Хэш (hash) релиза: 44be1301b5d04c84fc4ae37e760421c16c233c91

Еще никто не оставлял запись к записи скачать торрент Florian Ross Quintet — Seasons And Places — 1998, FLAC . Будь первым!

!Обратная связь