Скачать через торрент музыку Fats Waller - Fats And His Buddies - 1992, FLAC бесплатно без регистрации torrent

Если у вас наблюдаются проблемы со скриншотами, переходом по ссылками, скачиванием торрентов - проблемы в блокировщике рекламы AdBlock. #хорошегоДня!


Статистика раздачи
Размер:  146 MB   |    Зарегистрирован:  5 лет 7 месяцев   |    .torrent скачан:  28 раз   |   
Раздают:  1  
   
Загрузка...
 
Автор Сообщение

Umakiro

avatar Umakiro


Fats Waller – Fats And His Buddies

Жанр: Stride, New Orleans Jazz
Год издания диска: 1992
Издатель (лейбл): Bluebird RCA
Номер по каталогу: 61005-2
Аудиокодек: FLAC (*.flac)
Тип рипа: tracks+.cue
Битрейт аудио: lossless
Продолжительность: 65:20
Источник (релизер): вата
Сканов:

Треклист:
01. The Minor Drag (2:43)
02. Harlem Fuss (3:24)
03. Lookin' Good But Feelin' Bad (2:38)
04. I Need Someone Like You (3:36)
05. Lookin' For Another Sweetie (3:07)
06. Ridin' But Walkin' (2:32)
07. Won't You Get Up Off It Please (3:01)
08. When I'm Alone (3:32)
09. Willow Tree (3:31)
10. 'Sippi [take 1] (3:14)
11. 'Sippi [take 2] (3:10)
12. Thou Swell [take 2] (3:04)
13. Thou Swell [take 3] (3:01)
14. Persian Rug (3:35)
15. Fats Waller Stomp (3:24)
16. Savannah Blues (3:02)
17. Won't You Take Me Home? (2:47)
18. He's Gone Away (2:39)
19. Red Hot Dan (3:26)
20. Geechee Stomp (3:06)
21. Please Take Me Out Of Jail (2:49)
  
Exact Audio Copy V1.0 beta 1 from 15. November 2010

EAC extraction logfile from 30. March 2011, 23:25

Fats Waller / Fats And His Buddies

Used drive : PIONEER DVD-RW DVR-111D Adapter: 1 ID: 0

Read mode : SecureUtilize accurate stream : YesDefeat audio cache : YesMake use of C2 pointers : No

Read offset correction : 48Overread into Lead-In and Lead-Out : NoFill up missing offset samples with silence : YesDelete leading and trailing silent blocks : NoNull samples used in CRC calculations : YesUsed interface : Native Win32 interface for Win NT & 2000Gap handling : Appended to previous track

Used output format : User Defined EncoderSelected bitrate : 320 kBit/sQuality : HighAdd ID3 tag : NoCommand line compressor : C:\Program Files (x86)\Exact Audio Copy\Flac\flac.exeAdditional command line options : -V -8 -T "artist=%a" -T "title=%t" -T "album=%g" -T "date=%y" -T "tracknumber=%n" -T "genre=%m" %s

TOC of the extracted CD

Track | Start | Length | Start sector | End sector --------------------------------------------------------- 1 | 0:00.37 | 2:42.40 | 37 | 12226 2 | 2:43.02 | 3:23.58 | 12227 | 27509 3 | 6:06.60 | 2:38.30 | 27510 | 39389 4 | 8:45.15 | 3:35.47 | 39390 | 55561 5 | 12:20.62 | 3:06.45 | 55562 | 69556 6 | 15:27.32 | 2:31.43 | 69557 | 80924 7 | 17:59.00 | 3:01.27 | 80925 | 94526 8 | 21:00.27 | 3:31.73 | 94527 | 110424 9 | 24:32.25 | 3:31.32 | 110425 | 126281 10 | 28:03.57 | 3:14.35 | 126282 | 140866 11 | 31:18.17 | 3:10.05 | 140867 | 155121 12 | 34:28.22 | 3:03.50 | 155122 | 168896 13 | 37:31.72 | 3:00.65 | 168897 | 182461 14 | 40:32.62 | 3:34.55 | 182462 | 198566 15 | 44:07.42 | 3:24.25 | 198567 | 213891 16 | 47:31.67 | 3:01.63 | 213892 | 227529 17 | 50:33.55 | 2:47.02 | 227530 | 240056 18 | 53:20.57 | 2:39.05 | 240057 | 251986 19 | 55:59.62 | 3:26.15 | 251987 | 267451 20 | 59:26.02 | 3:05.38 | 267452 | 281364 21 | 62:31.40 | 2:49.12 | 281365 | 294051

Track 1

Filename C:\Rips\Fats Waller - 1992 - Fats And His Buddies [FLAC]\01 - The Minor Drag.wav

Pre-gap length 0:00:02.49

Peak level 90.9 % Extraction speed 4.4 X Track quality 100.0 % Test CRC 56390BB1 Copy CRC 56390BB1 Accurately ripped (confidence 2) [523195E6] Copy OK

Track 2

Filename C:\Rips\Fats Waller - 1992 - Fats And His Buddies [FLAC]\02 - Harlem Fuss.wav

Pre-gap length 0:00:01.33

Peak level 87.7 % Extraction speed 5.0 X Track quality 100.0 % Test CRC DCF04829 Copy CRC DCF04829 Accurately ripped (confidence 2) [C6F1762C] Copy OK

Track 3

Filename C:\Rips\Fats Waller - 1992 - Fats And His Buddies [FLAC]\03 - Lookin' Good But Feelin' Bad.wav

Pre-gap length 0:00:01.73

Peak level 85.9 % Extraction speed 4.3 X Track quality 99.9 % Test CRC 9E306846 Copy CRC 9E306846 Accurately ripped (confidence 2) [27846C7E] Copy OK

Track 4

Filename C:\Rips\Fats Waller - 1992 - Fats And His Buddies [FLAC]\04 - I Need Someone Like You.wav

Pre-gap length 0:00:01.73

Peak level 95.0 % Extraction speed 5.7 X Track quality 100.0 % Test CRC B4AB9F40 Copy CRC B4AB9F40 Accurately ripped (confidence 2) [347F7CF7] Copy OK

Track 5

Filename C:\Rips\Fats Waller - 1992 - Fats And His Buddies [FLAC]\05 - Lookin' For Another Sweetie.wav

Pre-gap length 0:00:01.69

Peak level 96.2 % Extraction speed 5.0 X Track quality 99.9 % Test CRC 1E69F441 Copy CRC 1E69F441 Accurately ripped (confidence 2) [D5F93AA2] Copy OK

Track 6

Filename C:\Rips\Fats Waller - 1992 - Fats And His Buddies [FLAC]\06 - Ridin' But Walkin'.wav

Pre-gap length 0:00:01.73

Peak level 90.6 % Extraction speed 5.9 X Track quality 100.0 % Test CRC 2D5F2312 Copy CRC 2D5F2312 Accurately ripped (confidence 2) [1E188519] Copy OK

Track 7

Filename C:\Rips\Fats Waller - 1992 - Fats And His Buddies [FLAC]\07 - Won't You Get Up Off It Please.wav

Pre-gap length 0:00:01.73

Peak level 79.5 % Extraction speed 6.3 X Track quality 100.0 % Test CRC 18E446A9 Copy CRC 18E446A9 Accurately ripped (confidence 2) [085AD27F] Copy OK

Track 8

Filename C:\Rips\Fats Waller - 1992 - Fats And His Buddies [FLAC]\08 - When I'm Alone.wav

Pre-gap length 0:00:01.56

Peak level 90.6 % Extraction speed 6.7 X Track quality 100.0 % Test CRC CCEBC850 Copy CRC CCEBC850 Accurately ripped (confidence 2) [75C87DEE] Copy OK

Track 9

Filename C:\Rips\Fats Waller - 1992 - Fats And His Buddies [FLAC]\09 - Willow Tree.wav

Pre-gap length 0:00:02.29

Peak level 79.0 % Extraction speed 6.9 X Track quality 100.0 % Test CRC FC210EA0 Copy CRC FC210EA0 Accurately ripped (confidence 2) [C186DA14] Copy OK

Track 10

Filename C:\Rips\Fats Waller - 1992 - Fats And His Buddies [FLAC]\10 - 'Sippi [take 1].wav

Pre-gap length 0:00:01.69

Peak level 99.2 % Extraction speed 7.1 X Track quality 100.0 % Test CRC 9EEC8106 Copy CRC 9EEC8106 Accurately ripped (confidence 2) [7DBED88F] Copy OK

Track 11

Filename C:\Rips\Fats Waller - 1992 - Fats And His Buddies [FLAC]\11 - 'Sippi [take 2].wav

Pre-gap length 0:00:02.56

Peak level 88.2 % Extraction speed 7.2 X Track quality 100.0 % Test CRC 581B6981 Copy CRC 581B6981 Accurately ripped (confidence 2) [91B9D218] Copy OK

Track 12

Filename C:\Rips\Fats Waller - 1992 - Fats And His Buddies [FLAC]\12 - Thou Swell [take 2].wav

Pre-gap length 0:00:01.69

Peak level 97.8 % Extraction speed 7.3 X Track quality 100.0 % Test CRC FDFE084F Copy CRC FDFE084F Accurately ripped (confidence 2) [6C56AFB1] Copy OK

Track 13

Filename C:\Rips\Fats Waller - 1992 - Fats And His Buddies [FLAC]\13 - Thou Swell [take 3].wav

Pre-gap length 0:00:01.49

Peak level 93.4 % Extraction speed 7.6 X Track quality 100.0 % Test CRC 5B425187 Copy CRC 5B425187 Accurately ripped (confidence 2) [3461DA70] Copy OK

Track 14

Filename C:\Rips\Fats Waller - 1992 - Fats And His Buddies [FLAC]\14 - Persian Rug.wav

Pre-gap length 0:00:01.66

Peak level 94.8 % Extraction speed 8.0 X Track quality 100.0 % Test CRC B6858B08 Copy CRC B6858B08 Accurately ripped (confidence 2) [25D7CBDB] Copy OK

Track 15

Filename C:\Rips\Fats Waller - 1992 - Fats And His Buddies [FLAC]\15 - Fats Waller Stomp.wav

Pre-gap length 0:00:01.69

Peak level 76.6 % Extraction speed 8.0 X Track quality 100.0 % Test CRC 0C9B1797 Copy CRC 0C9B1797 Accurately ripped (confidence 2) [5F6C6FAF] Copy OK

Track 16

Filename C:\Rips\Fats Waller - 1992 - Fats And His Buddies [FLAC]\16 - Savannah Blues.wav

Pre-gap length 0:00:01.80

Peak level 80.9 % Extraction speed 8.0 X Track quality 100.0 % Test CRC 5C11F696 Copy CRC 5C11F696 Accurately ripped (confidence 2) [6BCCEB8A] Copy OK

Track 17

Filename C:\Rips\Fats Waller - 1992 - Fats And His Buddies [FLAC]\17 - Won't You Take Me Home.wav

Pre-gap length 0:00:01.62

Peak level 84.6 % Extraction speed 6.9 X Track quality 99.9 % Test CRC 6238D108 Copy CRC 6238D108 Accurately ripped (confidence 2) [68AFD87B] Copy OK

Track 18

Filename C:\Rips\Fats Waller - 1992 - Fats And His Buddies [FLAC]\18 - He's Gone Away.wav

Pre-gap length 0:00:01.66

Peak level 89.2 % Extraction speed 6.8 X Track quality 99.9 % Test CRC D02308B5 Copy CRC D02308B5 Accurately ripped (confidence 2) [D90ADCA0] Copy OK

Track 19

Filename C:\Rips\Fats Waller - 1992 - Fats And His Buddies [FLAC]\19 - Red Hot Dan.wav

Pre-gap length 0:00:01.49

Peak level 77.8 % Extraction speed 7.4 X Track quality 99.9 % Test CRC EC41BF90 Copy CRC EC41BF90 Accurately ripped (confidence 2) [B77179AB] Copy OK

Track 20

Filename C:\Rips\Fats Waller - 1992 - Fats And His Buddies [FLAC]\20 - Geechee Stomp.wav

Pre-gap length 0:00:01.76

Peak level 95.3 % Extraction speed 2.1 X Track quality 100.0 % Test CRC 157AD8FC Copy CRC 157AD8FC Accurately ripped (confidence 2) [AD85ED87] Copy OK

Track 21

Filename C:\Rips\Fats Waller - 1992 - Fats And His Buddies [FLAC]\21 - Please Take Me Out Of Jail.wav

Pre-gap length 0:00:01.42

Peak level 87.0 % Extraction speed 2.0 X Track quality 100.0 % Test CRC 50FFEEEF Copy CRC 50FFEEEF Accurately ripped (confidence 2) [1A742DDD] Copy OK

All tracks accurately ripped

No errors occurred

End of status report
  
REM GENRE JazzREM DATE 1992REM DISCID 290F5015REM COMMENT "ExactAudioCopy v1.0b1"FILE "01. The Minor Drag.flac" WAVE TRACK 01 AUDIO PREGAP 00:00:37 INDEX 01 00:00:00 TRACK 02 AUDIO INDEX 00 02:41:15FILE "02. Harlem Fuss.flac" WAVE INDEX 01 00:00:00 TRACK 03 AUDIO INDEX 00 03:22:03FILE "03. Lookin' Good But Feelin' Bad.flac" WAVE INDEX 01 00:00:00 TRACK 04 AUDIO INDEX 00 02:36:50FILE "04. I Need Someone Like You.flac" WAVE INDEX 01 00:00:00 TRACK 05 AUDIO INDEX 00 03:33:70FILE "05. Lookin' For Another Sweetie.flac" WAVE INDEX 01 00:00:00 TRACK 06 AUDIO INDEX 00 03:04:65FILE "06. Ridin' But Walkin'.flac" WAVE INDEX 01 00:00:00 TRACK 07 AUDIO INDEX 00 02:29:63FILE "07. Won't You Get Up Off It Please.flac" WAVE INDEX 01 00:00:00 TRACK 08 AUDIO INDEX 00 02:59:60FILE "08. When I'm Alone.flac" WAVE INDEX 01 00:00:00 TRACK 09 AUDIO INDEX 00 03:29:51FILE "09. Willow Tree.flac" WAVE INDEX 01 00:00:00 TRACK 10 AUDIO INDEX 00 03:29:55FILE "10. 'Sippi [take 1].flac" WAVE INDEX 01 00:00:00 TRACK 11 AUDIO INDEX 00 03:11:68FILE "11. 'Sippi [take 2].flac" WAVE INDEX 01 00:00:00 TRACK 12 AUDIO INDEX 00 03:08:28FILE "12. Thou Swell [take 2].flac" WAVE INDEX 01 00:00:00 TRACK 13 AUDIO INDEX 00 03:02:13FILE "13. Thou Swell [take 3].flac" WAVE INDEX 01 00:00:00 TRACK 14 AUDIO INDEX 00 02:59:15FILE "14. Persian Rug.flac" WAVE INDEX 01 00:00:00 TRACK 15 AUDIO INDEX 00 03:33:03FILE "15. Fats Waller Stomp.flac" WAVE INDEX 01 00:00:00 TRACK 16 AUDIO INDEX 00 03:22:40FILE "16. Savannah Blues.flac" WAVE INDEX 01 00:00:00 TRACK 17 AUDIO INDEX 00 03:00:16FILE "17. Won't You Take Me Home.flac" WAVE INDEX 01 00:00:00 TRACK 18 AUDIO INDEX 00 02:45:27FILE "18. He's Gone Away.flac" WAVE INDEX 01 00:00:00 TRACK 19 AUDIO INDEX 00 02:37:43FILE "19. Red Hot Dan.flac" WAVE INDEX 01 00:00:00 TRACK 20 AUDIO INDEX 00 03:24:33FILE "20. Geechee Stomp.flac" WAVE INDEX 01 00:00:00 TRACK 21 AUDIO INDEX 00 03:04:06FILE "21. Please Take Me Out Of Jail.flac" WAVE INDEX 01 00:00:00


Трекер:  [ 24-Фев-2012 07:40 ]

  

Скачать .torrent

Размер .torrent файла 13 KB


Размер: 146 MB
Хэш (hash) релиза: e377db3aca226dfe768ae11f065a3cd8e90a3a76

Еще никто не оставлял запись к записи скачать торрент Fats Waller - Fats And His Buddies - 1992, FLAC . Будь первым!

!Обратная связь