Скачать через торрент музыку Artie Shaw — The Indispensable Artie Shaw бесплатно без регистрации torrent

Если у вас наблюдаются проблемы со скриншотами, переходом по ссылками, скачиванием торрентов - проблемы в блокировщике рекламы AdBlock. #хорошегоДня!


Статистика раздачи
Размер:  1.13 GB   |    Зарегистрирован:  5 лет 7 месяцев   |    .torrent скачан:  34 раза   |   
Раздают:  1  
   
Загрузка...
 
Автор Сообщение

Umakiro

avatar Umakiro


Artie Shaw — The Indispensable Artie Shaw (1938-1945) (6 CD)

Жанр: Swing
Год выпуска диска: 1995
Производитель диска: France
Аудио кодек: FLAC
Тип рипа: tracks+.cue
Битрейт аудио: lossless
Источник:
А́рти Шо́у (англ. Artie Shaw), настоящее имя Артур Якоб Аршавски (Arthur Jacob Arshawsky; 23 мая 1910, Нью-Йорк — 30 декабря 2004, Лос-Анджелес) — американский джазовый кларнетист, дирижёр, композитор и писатель, один из крупнейших музыкантов «эры свинга».
Артур Аршавски рос и учился музыке в Нью-Хейвене (штат Коннектикут), где в 1925 в качестве саксофониста попал в танцевальный оркестр Джонни Кавалларо. На следующий год он начал играть на кларнете, который вскоре стал его основным инструментом. В 1926—1929 он работал в оркестре Остина Уайли, для которого делал аранжировки, затем играл на саксофоне у Ирвинга Ааронсона, в 1929 году в Чикаго участвовал в джем-сессиях с местными музыкантами. В это же время он знакомится с музыкой Клода Дебюсси и Игоря Стравинского, оказавшей большое влияние на развитие его музыкального мировоззрения.
В 1931—1934, уже под псевдонимом Арти Шоу, музыкант выступает как свободный артист, а в 1936 для концерта в театре «Империал» формирует свою первую группу. Её состав был необычен для джаза того времени — струнный квартет, ритм-секция и кларнет соло, однако это не помешало Шоу произвести на публику большое впечатление собственным сочинением «Интерлюдия in B». В дальнейшем к группе присоединились два трубача, тромбонист, саксофонист и певец, но настороженное отношение музыкальной общественности к нестандартному составу и инструментовке вынудило Шоу распустить её в марте 1937.
Через месяц Шоу собирает новый оркестр, с которым вскоре записывает свой первый хит — композицию Коула Портера Begin the Beguine в аранжировке Джерри Грэя. К Шоу приходит известность, и многие начинают говорить о нём как о конкуренте Бенни Гудмена. Не приняв роли кумира публики, Шоу в ноябре 1939 года временно покидает сцену.
В начале 1940 Шоу работает в Голливуде над музыкой к фильмам, а также записывает со струнным оркестром композицию Frenesi. Её успех сподвиг Шоу на концертный тур в сопровождении оркестра, дополненного струнными инструментами. Из состава этого оркестра он создаёт «Пятёрку Грэмерси» (Gramercy Five), с которой исполняет ещё один хит, Summit Ridge Drive. Несмотря на то, что эта композиция стала весьма популярной, Шоу скоро вновь распустил свой ансамбль и обосновался в Нью-Йорке, где начал изучать оркестровку и продолжил записываться в студиях.
В январе 1942 Шоу призван во флот, где по поручению командования организует оркестр, которым руководит в течение ближайшего года. Вскоре музыканта демобилизуют, и в 1944 он создаёт для себя новую группу, которая многими историками джаза считается лучшей из всех, с которыми он работал. Среди хитов этого периода наиболее известной стала композиция Little Jazz, записанная с трубачом Роем Элдриджем. Шоу также возрождает «Пятёрку Грэмерси», а затем организует ещё два больших оркестра. Он активно выступал и записывался до 1954 года, после чего объявил, что прекращает выступления. Лишь в 1983 Шоу вновь собрал свой оркестр и изредка дирижировал им, но основным руководителем этого коллектива стал кларнетист Дик Джонсон.
Шоу часто сравнивали с другим выдающимся кларнетистом этого времени — Бенни Гудменом. Также, как и Гудмен, Шоу обладал высочайшим техническим мастерством и хорошим чувством фразировки, однако манера его исполнения была более спокойной. Как композитор Шоу известен прежде всего своим Концертом для кларнета с оркестром (1940), который сам же и исполнял с большим успехом.
Продолжительность: 48:26

Трэклист:
01. Begin The Beguine (3:16)
02. Indian Love Call (3:12)
03. Comin' On (2:49)
04. Back Bay Shuffle (3:16)
05. Any Old Time (3:13)
06. I Can't Believe That You're In Love With Me (3:09)
07. Non-Stop Flight (2:49)
08. What Is This Thing Called Love (3:15)
09. Copenhagen (2:40)
10. Softly As In A Morning Sunrise (3:15)
11. It Had To Be You (2:32)
12. My Heart Stood Still (2:51)
13. Rosalie (2:46)
14. Rose Room (3:13)
15. This Is It (2:55)
16. Deep Purple (3:14)
  
EAC extraction logfile from 4. March 2009, 23:55 for CDArtie Shaw / Indispensable Artie Shaw Vol. 1

Used drive : PLEXTOR DVDR PX-810SA Adapter: 4 ID: 1Read mode : Secure with NO C2, accurate stream, disable cacheRead offset correction : 48Overread into Lead-In and Lead-Out : No

Used output format : C:\Program Files\FLAC\flac.exe (User Defined Encoder) 32 kBit/s Additional command line options : -V -8 -T "artist=%a" -T "title=%t" -T "album=%g" -T "date=%y" -T "tracknumber=%n" -T "genre=%m" %s

Other options : Fill up missing offset samples with silence : Yes Delete leading and trailing silent blocks : No Native Win32 interface for Win NT & 2000

Track 1 Filename C:\IndispensableAS\Vol.1\01 - Begin The Beguine.wav

Pre-gap length 0:00:02.42

Peak level 96.4 % Track quality 100.0 % Test CRC A4E5DDF8 Copy CRC A4E5DDF8 Copy OK

Track 2 Filename C:\IndispensableAS\Vol.1\02 - Indian Love Call.wav

Pre-gap length 0:00:01.50

Peak level 98.1 % Track quality 100.0 % Test CRC C8DB029B Copy CRC C8DB029B Copy OK

Track 3 Filename C:\IndispensableAS\Vol.1\03 - Comin' On.wav

Pre-gap length 0:00:01.37

Peak level 98.1 % Track quality 100.0 % Test CRC 1063C5C0 Copy CRC 1063C5C0 Copy OK

Track 4 Filename C:\IndispensableAS\Vol.1\04 - Back Bay Shuffle.wav

Pre-gap length 0:00:01.90

Peak level 98.1 % Track quality 99.9 % Test CRC CEBE6433 Copy CRC CEBE6433 Copy OK

Track 5 Filename C:\IndispensableAS\Vol.1\05 - Any Old Time.wav

Pre-gap length 0:00:00.89

Peak level 98.1 % Track quality 100.0 % Test CRC 7141237A Copy CRC 7141237A Copy OK

Track 6 Filename C:\IndispensableAS\Vol.1\06 - I Can't Believe That You're In Love With Me.wav

Pre-gap length 0:00:01.40

Peak level 98.1 % Track quality 100.0 % Test CRC 1B8A07AB Copy CRC 1B8A07AB Copy OK

Track 7 Filename C:\IndispensableAS\Vol.1\07 - Non-Stop Flight.wav

Pre-gap length 0:00:00.76

Peak level 98.1 % Track quality 99.9 % Test CRC B3E6195F Copy CRC B3E6195F Copy OK

Track 8 Filename C:\IndispensableAS\Vol.1\08 - What Is This Thing Called Love.wav

Pre-gap length 0:00:01.56

Peak level 98.1 % Track quality 100.0 % Test CRC 424E122B Copy CRC 424E122B Copy OK

Track 9 Filename C:\IndispensableAS\Vol.1\09 - Copenhagen.wav

Pre-gap length 0:00:00.53

Peak level 98.1 % Track quality 100.0 % Test CRC 076FE02A Copy CRC 076FE02A Copy OK

Track 10 Filename C:\IndispensableAS\Vol.1\10 - Softly As In A Morning Sunrise.wav

Pre-gap length 0:00:01.33

Peak level 98.1 % Track quality 100.0 % Test CRC D73083E8 Copy CRC D73083E8 Copy OK

Track 11 Filename C:\IndispensableAS\Vol.1\11 - It Had To Be You.wav

Pre-gap length 0:00:02.02

Peak level 98.1 % Track quality 100.0 % Test CRC FC44E67E Copy CRC FC44E67E Copy OK

Track 12 Filename C:\IndispensableAS\Vol.1\12 - My Heart Stood Still.wav

Pre-gap length 0:00:02.17

Peak level 98.1 % Track quality 100.0 % Test CRC 2F1B0EB0 Copy CRC 2F1B0EB0 Copy OK

Track 13 Filename C:\IndispensableAS\Vol.1\13 - Rosalie.wav

Pre-gap length 0:00:02.30

Peak level 98.1 % Track quality 100.0 % Test CRC A11B45EA Copy CRC A11B45EA Copy OK

Track 14 Filename C:\IndispensableAS\Vol.1\14 - Rose Room.wav

Pre-gap length 0:00:01.53

Peak level 98.1 % Track quality 100.0 % Test CRC E229043A Copy CRC E229043A Copy OK

Track 15 Filename C:\IndispensableAS\Vol.1\15 - This Is It.wav

Pre-gap length 0:00:02.00

Peak level 98.1 % Track quality 99.9 % Test CRC 5AC50EE5 Copy CRC 5AC50EE5 Copy OK

Track 16 Filename C:\IndispensableAS\Vol.1\16 - Deep Purple.wav

Pre-gap length 0:00:01.53

Peak level 96.8 % Track quality 100.0 % Test CRC F01004DE Copy CRC F01004DE Copy OK

No errors occured

End of status report
Продолжительность: 49:23

Трэклист:
01. Prosschai (3:14)
02. I'm Coming, Virginia (2:32)
03. Snug As A Bug In A Rug (2:53)
04. One Foot In The Groove (3:44)
05. Out Of Nowhere (3:28)
06. I Can't Afford To Dream (2:31)
07. Serenade To A Savage (2:40)
08. You're A Lucky Guy (2:40)
09. Nightmare (1:46)
10. Sobbin' Blues (3:55)
11. Together (2:40)
12. Carioca (4:05)
13. At Sundown (4:01)
14. I've Got My Eyes On You (2:38)
15. Sweet Sue - Just You (3:34)
16. St. Louis Blues (3:02)
  
EAC extraction logfile from 5. March 2009, 0:24 for CDArtie Shaw / Indispensable Artie Shaw Vol. 2

Used drive : PLEXTOR DVDR PX-810SA Adapter: 4 ID: 1Read mode : Secure with NO C2, accurate stream, disable cacheRead offset correction : 48Overread into Lead-In and Lead-Out : No

Used output format : C:\Program Files\FLAC\flac.exe (User Defined Encoder) 32 kBit/s Additional command line options : -V -8 -T "artist=%a" -T "title=%t" -T "album=%g" -T "date=%y" -T "tracknumber=%n" -T "genre=%m" %s

Other options : Fill up missing offset samples with silence : Yes Delete leading and trailing silent blocks : No Native Win32 interface for Win NT & 2000

Track 1 Filename C:\IndispensableAS\Vol.2\01 - Prosschai.wav

Pre-gap length 0:00:02.42

Peak level 98.7 % Track quality 100.0 % Test CRC 14CB5593 Copy CRC 14CB5593 Copy OK

Track 2 Filename C:\IndispensableAS\Vol.2\02 - I'm Coming Virginia.wav

Pre-gap length 0:00:01.80

Peak level 98.7 % Track quality 100.0 % Test CRC D1DFF657 Copy CRC D1DFF657 Copy OK

Track 3 Filename C:\IndispensableAS\Vol.2\03 - Snug As A Bug In A Rug.wav

Pre-gap length 0:00:01.73

Peak level 98.7 % Track quality 100.0 % Test CRC 99E28D3D Copy CRC 99E28D3D Copy OK

Track 4 Filename C:\IndispensableAS\Vol.2\04 - One Foot In The Groove.wav

Pre-gap length 0:00:01.44

Peak level 98.7 % Track quality 100.0 % Test CRC BFA5AE83 Copy CRC BFA5AE83 Copy OK

Track 5 Filename C:\IndispensableAS\Vol.2\05 - Out Of Nowhere.wav

Pre-gap length 0:00:01.17

Peak level 95.0 % Track quality 100.0 % Test CRC C3B08E74 Copy CRC C3B08E74 Copy OK

Track 6 Filename C:\IndispensableAS\Vol.2\06 - I Can't Afford To Dream.wav

Pre-gap length 0:00:01.69

Peak level 86.0 % Track quality 100.0 % Test CRC 923E1B27 Copy CRC 923E1B27 Copy OK

Track 7 Filename C:\IndispensableAS\Vol.2\07 - Serenade to a Savage.wav

Pre-gap length 0:00:01.40

Peak level 98.7 % Track quality 99.9 % Test CRC EF17EF07 Copy CRC EF17EF07 Copy OK

Track 8 Filename C:\IndispensableAS\Vol.2\08 - You're a Lucky Guy.wav

Pre-gap length 0:00:02.16

Peak level 75.0 % Track quality 100.0 % Test CRC 189BFF16 Copy CRC 189BFF16 Copy OK

Track 9 Filename C:\IndispensableAS\Vol.2\09 - Nightmare.wav

Pre-gap length 0:00:01.77

Peak level 61.3 % Track quality 100.0 % Test CRC CE95914C Copy CRC CE95914C Copy OK

Track 10 Filename C:\IndispensableAS\Vol.2\10 - Sobbin' blues.wav

Pre-gap length 0:00:02.16

Peak level 74.5 % Track quality 100.0 % Test CRC 0912F41C Copy CRC 0912F41C Copy OK

Track 11 Filename C:\IndispensableAS\Vol.2\11 - Together.wav

Pre-gap length 0:00:01.60

Peak level 86.5 % Track quality 100.0 % Test CRC 7ED9451D Copy CRC 7ED9451D Copy OK

Track 12 Filename C:\IndispensableAS\Vol.2\12 - Carioca.wav

Pre-gap length 0:00:01.66

Peak level 86.9 % Track quality 100.0 % Test CRC B7557406 Copy CRC B7557406 Copy OK

Track 13 Filename C:\IndispensableAS\Vol.2\13 - At Sundown.wav

Pre-gap length 0:00:00.89

Peak level 58.4 % Track quality 100.0 % Test CRC 49E884FD Copy CRC 49E884FD Copy OK

Track 14 Filename C:\IndispensableAS\Vol.2\14 - I've Got My Eyes On You.wav

Pre-gap length 0:00:02.16

Peak level 100.0 % Track quality 100.0 % Test CRC 77EE406D Copy CRC 77EE406D Copy OK

Track 15 Filename C:\IndispensableAS\Vol.2\15 - Sweet Sue - Just You.wav

Pre-gap length 0:00:02.00

Peak level 91.9 % Track quality 100.0 % Test CRC BE0F2965 Copy CRC BE0F2965 Copy OK

Track 16 Filename C:\IndispensableAS\Vol.2\16 - St. Louis Blues.wav

Pre-gap length 0:00:01.64

Peak level 87.1 % Track quality 100.0 % Test CRC 43066098 Copy CRC 43066098 Copy OK

No errors occured

End of status report
Продолжительность: 51:24

Трэклист:
01. Frenesi (3:08)
02. King For A Day (3:25)
03. Special Delivery Stomp (2:44)
04. Summit Ridge Drive (3:22)
05. Chantez Les Bas (3:09)
06. Star Dust (3:33)
07. Blues (6:29)
08. What Is There To Say (3:11)
09. Who's Excited (3:20)
10. Prelude In C Major (2:54)
11. When The Quail Come Back To San Quentin (3:19)
12. Concerto For A Clarinet (9:21)
13. Moonglow (3:28)
  
EAC extraction logfile from 5. March 2009, 18:58 for CDArtie Shaw / Indispensable Artie Shaw Vol. 3

Used drive : PLEXTOR DVDR PX-810SA Adapter: 4 ID: 1Read mode : Secure with NO C2, accurate stream, disable cacheRead offset correction : 48Overread into Lead-In and Lead-Out : No

Used output format : C:\Program Files\FLAC\flac.exe (User Defined Encoder) 32 kBit/s Additional command line options : -V -8 -T "artist=%a" -T "title=%t" -T "album=%g" -T "date=%y" -T "tracknumber=%n" -T "genre=%m" %s

Other options : Fill up missing offset samples with silence : Yes Delete leading and trailing silent blocks : No Native Win32 interface for Win NT & 2000

Track 1 Filename C:\IndispensableAS\Vol.3\01 - Frenesi.wav

Pre-gap length 0:00:02.44

Peak level 89.0 % Track quality 100.0 % Test CRC B4FA7E55 Copy CRC B4FA7E55 Copy OK

Track 2 Filename C:\IndispensableAS\Vol.3\02 - King For A Day.wav

Pre-gap length 0:00:03.02

Peak level 93.8 % Track quality 100.0 % Test CRC 5DD6A8D0 Copy CRC 5DD6A8D0 Copy OK

Track 3 Filename C:\IndispensableAS\Vol.3\03 - Special Delivery Stomp.wav

Pre-gap length 0:00:01.60

Peak level 86.1 % Track quality 100.0 % Test CRC 67C6E5AD Copy CRC 67C6E5AD Copy OK

Track 4 Filename C:\IndispensableAS\Vol.3\04 - Summit Ridge Drive.wav

Pre-gap length 0:00:01.30

Peak level 93.8 % Track quality 100.0 % Test CRC 24BA444A Copy CRC 24BA444A Copy OK

Track 5 Filename C:\IndispensableAS\Vol.3\05 - Sing 'em Low.wav

Pre-gap length 0:00:01.69

Peak level 87.8 % Track quality 100.0 % Test CRC 6B3069B6 Copy CRC 6B3069B6 Copy OK

Track 6 Filename C:\IndispensableAS\Vol.3\06 - Stardust.wav

Pre-gap length 0:00:02.16

Peak level 96.4 % Track quality 100.0 % Test CRC 8D66B22F Copy CRC 8D66B22F Copy OK

Track 7 Filename C:\IndispensableAS\Vol.3\07 - Blues.wav

Pre-gap length 0:00:01.49

Peak level 85.0 % Track quality 100.0 % Test CRC 977421F1 Copy CRC 977421F1 Copy OK

Track 8 Filename C:\IndispensableAS\Vol.3\08 - What Is There To Say.wav

Pre-gap length 0:00:02.26

Peak level 88.9 % Track quality 100.0 % Test CRC 0BEB101C Copy CRC 0BEB101C Copy OK

Track 9 Filename C:\IndispensableAS\Vol.3\09 - Who's Excited.wav

Pre-gap length 0:00:01.26

Peak level 93.3 % Track quality 100.0 % Test CRC C286A3E8 Copy CRC C286A3E8 Copy OK

Track 10 Filename C:\IndispensableAS\Vol.3\10 - Prelude in C Major.wav

Pre-gap length 0:00:01.16

Peak level 82.9 % Track quality 100.0 % Test CRC 6B9E0BEB Copy CRC 6B9E0BEB Copy OK

Track 11 Filename C:\IndispensableAS\Vol.3\11 - When The Quail Come Back To San Quentin.wav

Pre-gap length 0:00:00.82

Peak level 80.6 % Track quality 100.0 % Test CRC C62EBC15 Copy CRC C62EBC15 Copy OK

Track 12 Filename C:\IndispensableAS\Vol.3\12 - Concerto For A Clarinet.wav

Pre-gap length 0:00:01.86

Peak level 93.6 % Track quality 100.0 % Test CRC EB1F9ADB Copy CRC EB1F9ADB Copy OK

Track 13 Filename C:\IndispensableAS\Vol.3\13 - Moonglow.wav

Pre-gap length 0:00:01.57

Peak level 85.0 % Track quality 100.0 % Test CRC 4D5C4C88 Copy CRC 4D5C4C88 Copy OK

No errors occured

End of status report
Продолжительность: 50:26

Трэклист:
01. Confessin' (3:21)
02. Love Me A Little Little (3:07)
03. Beyond The Blue Horizon (2:46)
04. Blues In The Night (3:16)
05. Rockin' Chair (3:10)
06. Take Your Shoes Off Baby (3:26)
07. Solid Sam (3:18)
08. Just Kiddin' Around (3:23)
09. St. James Infirmary Blues (6:21)
10. Deuces Wild (2:11)
11. Someone's Rocking My Dreamboat (3:19)
12. Carnival (2:44)
13. Needlenose (3:27)
14. Two In One Blues (3:23)
15. Sometimes I Feel Like A Motherless Child (3:15)
  
EAC extraction logfile from 5. March 2009, 23:17 for CDArtie Shaw / Indispensable Artie Shaw Vol. 4

Used drive : PLEXTOR DVDR PX-810SA Adapter: 4 ID: 1Read mode : Secure with NO C2, accurate stream, disable cacheRead offset correction : 48Overread into Lead-In and Lead-Out : No

Used output format : C:\Program Files\FLAC\flac.exe (User Defined Encoder) 32 kBit/s Additional command line options : -V -8 -T "artist=%a" -T "title=%t" -T "album=%g" -T "date=%y" -T "tracknumber=%n" -T "genre=%m" %s

Other options : Fill up missing offset samples with silence : Yes Delete leading and trailing silent blocks : No Native Win32 interface for Win NT & 2000

Track 1 Filename C:\IndispensableAS\Vol.4\01 - Confessin'.wav

Pre-gap length 0:00:02.42

Peak level 95.6 % Track quality 100.0 % Test CRC 9B08FF17 Copy CRC 9B08FF17 Copy OK

Track 2 Filename C:\IndispensableAS\Vol.4\02 - Love Me A Little Little.wav

Pre-gap length 0:00:01.26

Peak level 98.8 % Track quality 100.0 % Test CRC AA2F9609 Copy CRC AA2F9609 Copy OK

Track 3 Filename C:\IndispensableAS\Vol.4\03 - Beyond The Blue Horizon.wav

Pre-gap length 0:00:03.64

Peak level 95.5 % Track quality 100.0 % Test CRC EDE603EF Copy CRC EDE603EF Copy OK

Track 4 Filename C:\IndispensableAS\Vol.4\04 - Blues In The Night.wav

Pre-gap length 0:00:02.50

Peak level 94.0 % Track quality 100.0 % Test CRC 0BB35BC8 Copy CRC 0BB35BC8 Copy OK

Track 5 Filename C:\IndispensableAS\Vol.4\05 - Rockin' Chair.wav

Pre-gap length 0:00:02.40

Peak level 80.5 % Track quality 99.9 % Test CRC 4436154A Copy CRC 4436154A Copy OK

Track 6 Filename C:\IndispensableAS\Vol.4\06 - Take Your Shoes Off, Baby.wav

Pre-gap length 0:00:01.80

Peak level 96.7 % Track quality 100.0 % Test CRC 607D18A1 Copy CRC 607D18A1 Copy OK

Track 7 Filename C:\IndispensableAS\Vol.4\07 - Solid Sam.wav

Pre-gap length 0:00:01.66

Peak level 97.7 % Track quality 100.0 % Test CRC 5845A1F9 Copy CRC 5845A1F9 Copy OK

Track 8 Filename C:\IndispensableAS\Vol.4\08 - Just Kiddin' Around.wav

Pre-gap length 0:00:01.20

Peak level 87.9 % Track quality 100.0 % Test CRC 6975A694 Copy CRC 6975A694 Copy OK

Track 9 Filename C:\IndispensableAS\Vol.4\09 - St. James Infirmary Blues.wav

Pre-gap length 0:00:02.53

Peak level 90.3 % Track quality 100.0 % Test CRC F7BD3D34 Copy CRC F7BD3D34 Copy OK

Track 10 Filename C:\IndispensableAS\Vol.4\10 - Deuces Wild.wav

Pre-gap length 0:00:01.69

Peak level 98.8 % Track quality 100.0 % Test CRC DA7D0E17 Copy CRC DA7D0E17 Copy OK

Track 11 Filename C:\IndispensableAS\Vol.4\11 - Someone's Rocking My Dreamboat.wav

Pre-gap length 0:00:01.29

Peak level 82.2 % Track quality 100.0 % Test CRC D4D85720 Copy CRC D4D85720 Copy OK

Track 12 Filename C:\IndispensableAS\Vol.4\12 - Carnival.wav

Pre-gap length 0:00:01.44

Peak level 96.2 % Track quality 100.0 % Test CRC 36CAE558 Copy CRC 36CAE558 Copy OK

Track 13 Filename C:\IndispensableAS\Vol.4\13 - Needlenose.wav

Pre-gap length 0:00:01.02

Peak level 96.0 % Track quality 100.0 % Test CRC 6FBE2C4E Copy CRC 6FBE2C4E Copy OK

Track 14 Filename C:\IndispensableAS\Vol.4\14 - Two In One Blues.wav

Pre-gap length 0:00:01.73

Peak level 76.5 % Track quality 100.0 % Test CRC 638B5945 Copy CRC 638B5945 Copy OK

Track 15 Filename C:\IndispensableAS\Vol.4\15 - Sometimes I Feel Like a Motherless Child.wav

Pre-gap length 0:00:01.57

Peak level 91.8 % Track quality 100.0 % Test CRC 164F3219 Copy CRC 164F3219 Copy OK

No errors occured

End of status report
Продолжительность: 51:05

Трэклист:
01. Lady Day (3:05)
02. Jumpin' On The Merry-Go-Round (3:11)
03. I'll Never Be The Same (3:18)
04. 'S Wonderful (3:07)
05. Bedford Drive (3:19)
06. The Grabtown Grapple (2:57)
07. The Sad Sack (3:05)
08. Little Jazz (3:02)
09. Tea For Two (3:04)
10. Summertime (4:28)
11. Time On My Hands (3:01)
12. A Foggy Day (3:12)
13. The Man I Love (3:09)
14. I Could Write A Book (3:04)
15. Thrill Off A Lifetime (3:22)
16. Lucky Number (2:40)
  
EAC extraction logfile from 5. March 2009, 23:55 for CDArtie Shaw / Indispensable Artie Shaw Vol. 5

Used drive : PLEXTOR DVDR PX-810SA Adapter: 4 ID: 1Read mode : Secure with NO C2, accurate stream, disable cacheRead offset correction : 48Overread into Lead-In and Lead-Out : No

Used output format : C:\Program Files\FLAC\flac.exe (User Defined Encoder) 32 kBit/s Additional command line options : -V -8 -T "artist=%a" -T "title=%t" -T "album=%g" -T "date=%y" -T "tracknumber=%n" -T "genre=%m" %s

Other options : Fill up missing offset samples with silence : Yes Delete leading and trailing silent blocks : No Native Win32 interface for Win NT & 2000

Track 1 Filename C:\IndispensableAS\Vol.5\01 - Lady Day.wav

Pre-gap length 0:00:02.42

Peak level 81.3 % Track quality 100.0 % Test CRC FD0312B5 Copy CRC FD0312B5 Copy OK

Track 2 Filename C:\IndispensableAS\Vol.5\02 - Jumpin' On The Merry-Go-Round.wav

Pre-gap length 0:00:02.37

Peak level 81.4 % Track quality 100.0 % Test CRC 5E9B60B2 Copy CRC 5E9B60B2 Copy OK

Track 3 Filename C:\IndispensableAS\Vol.5\03 - I'll Never Be The Same.wav

Pre-gap length 0:00:01.70

Peak level 68.5 % Track quality 100.0 % Test CRC E7AFF001 Copy CRC E7AFF001 Copy OK

Track 4 Filename C:\IndispensableAS\Vol.5\04 - 'S Wonderful.wav

Pre-gap length 0:00:01.62

Peak level 75.7 % Track quality 100.0 % Test CRC 03E81A69 Copy CRC 03E81A69 Copy OK

Track 5 Filename C:\IndispensableAS\Vol.5\05 - Bedford Drive.wav

Pre-gap length 0:00:02.04

Peak level 81.8 % Track quality 100.0 % Test CRC 87C0476A Copy CRC 87C0476A Copy OK

Track 6 Filename C:\IndispensableAS\Vol.5\06 - The Grabtown Grapple.wav

Pre-gap length 0:00:01.53

Peak level 63.4 % Track quality 99.8 % Test CRC B6AB1E6E Copy CRC B6AB1E6E Copy OK

Track 7 Filename C:\IndispensableAS\Vol.5\07 - The Sad Sack.wav

Pre-gap length 0:00:02.50

Peak level 55.4 % Track quality 100.0 % Test CRC F63B1EA3 Copy CRC F63B1EA3 Copy OK

Track 8 Filename C:\IndispensableAS\Vol.5\08 - Little Jazz.wav

Pre-gap length 0:00:01.10

Peak level 79.7 % Track quality 100.0 % Test CRC A96AA17A Copy CRC A96AA17A Copy OK

Track 9 Filename C:\IndispensableAS\Vol.5\09 - Tea For Two.wav

Pre-gap length 0:00:01.00

Peak level 84.4 % Track quality 100.0 % Test CRC B62592C0 Copy CRC B62592C0 Copy OK

Track 10 Filename C:\IndispensableAS\Vol.5\10 - Summertime.wav

Pre-gap length 0:00:01.36

Peak level 69.3 % Track quality 100.0 % Test CRC 22AF260B Copy CRC 22AF260B Copy OK

Track 11 Filename C:\IndispensableAS\Vol.5\11 - Time On My Hands.wav

Pre-gap length 0:00:02.69

Peak level 82.3 % Track quality 100.0 % Test CRC 3E5BBEE5 Copy CRC 3E5BBEE5 Copy OK

Track 12 Filename C:\IndispensableAS\Vol.5\12 - A Foggy Day.wav

Pre-gap length 0:00:02.33

Peak level 76.2 % Track quality 100.0 % Test CRC FCB93D5F Copy CRC FCB93D5F Copy OK

Track 13 Filename C:\IndispensableAS\Vol.5\13 - The Man I Love.wav

Pre-gap length 0:00:02.29

Peak level 73.7 % Track quality 100.0 % Test CRC 27ACFA85 Copy CRC 27ACFA85 Copy OK

Track 14 Filename C:\IndispensableAS\Vol.5\14 - I Could Write A Book.wav

Pre-gap length 0:00:01.82

Peak level 73.6 % Track quality 100.0 % Test CRC 4801987A Copy CRC 4801987A Copy OK

Track 15 Filename C:\IndispensableAS\Vol.5\15 - Thrill Of A Lifetime.wav

Pre-gap length 0:00:01.33

Peak level 77.6 % Track quality 100.0 % Test CRC F48E5F70 Copy CRC F48E5F70 Copy OK

Track 16 Filename C:\IndispensableAS\Vol.5\16 - Lucky Number.wav

Pre-gap length 0:00:02.00

Peak level 83.5 % Track quality 99.9 % Test CRC A24EC75F Copy CRC A24EC75F Copy OK

No errors occured

End of status report
Продолжительность: 49:20

Трэклист:
01. Love Walked In (2:53)
02. Soon (3:01)
03. Natch (3:13)
04. They Can't Take That Away From Me (2:42)
05. Someone To Watch Over Me (3:02)
06. Things Are Looking Up (3:06)
07. The Maid With The Flaccid Air (3:49)
08. No One But You (3:02)
09. Dancing On The Ceiling (3:08)
10. I Can't Get Started With You (3:22)
11. Just Floatin' Along (3:05)
12. I Can't Escape From You (3:02)
13. Scuttlebutt (3:10)
14. The Gentle Grifter (2:48)
15. Mysterioso (3:00)
16. Hop, Skip And Jump (2:56)
  
EAC extraction logfile from 6. March 2009, 0:45 for CDArtie Shaw / Indispensable Artie Shaw Vol. 6

Used drive : PLEXTOR DVDR PX-810SA Adapter: 4 ID: 1Read mode : Secure with NO C2, accurate stream, disable cacheRead offset correction : 48Overread into Lead-In and Lead-Out : No

Used output format : C:\Program Files\FLAC\flac.exe (User Defined Encoder) 32 kBit/s Additional command line options : -V -8 -T "artist=%a" -T "title=%t" -T "album=%g" -T "date=%y" -T "tracknumber=%n" -T "genre=%m" %s

Other options : Fill up missing offset samples with silence : Yes Delete leading and trailing silent blocks : No Native Win32 interface for Win NT & 2000

Track 1 Filename C:\IndispensableAS\Vol.6\01 - Love Walked In.wav

Pre-gap length 0:00:02.42

Peak level 77.3 % Track quality 100.0 % Test CRC 352F877F Copy CRC 352F877F Copy OK

Track 2 Filename C:\IndispensableAS\Vol.6\02 - Soon.wav

Pre-gap length 0:00:02.33

Peak level 84.6 % Track quality 100.0 % Test CRC BF6D4650 Copy CRC BF6D4650 Copy OK

Track 3 Filename C:\IndispensableAS\Vol.6\03 - Natch.wav

Pre-gap length 0:00:02.29

Peak level 77.4 % Track quality 100.0 % Test CRC B40D4FB8 Copy CRC B40D4FB8 Copy OK

Track 4 Filename C:\IndispensableAS\Vol.6\04 - They Can't Take That Away From Me.wav

Pre-gap length 0:00:01.17

Peak level 81.6 % Track quality 100.0 % Test CRC 83848B6C Copy CRC 83848B6C Copy OK

Track 5 Filename C:\IndispensableAS\Vol.6\05 - Someone To Watch Over Me.wav

Pre-gap length 0:00:02.20

Peak level 73.9 % Track quality 100.0 % Test CRC 8C3B2EF6 Copy CRC 8C3B2EF6 Copy OK

Track 6 Filename C:\IndispensableAS\Vol.6\06 - Things Are Looking Up.wav

Pre-gap length 0:00:02.20

Peak level 73.5 % Track quality 100.0 % Test CRC 65867377 Copy CRC 65867377 Copy OK

Track 7 Filename C:\IndispensableAS\Vol.6\07 - The Maid With The Flaccid Air.wav

Pre-gap length 0:00:02.09

Peak level 72.0 % Track quality 100.0 % Test CRC B0BB60AF Copy CRC B0BB60AF Copy OK

Track 8 Filename C:\IndispensableAS\Vol.6\08 - No One But You.wav

Pre-gap length 0:00:01.56

Peak level 68.0 % Track quality 100.0 % Test CRC 67377283 Copy CRC 67377283 Copy OK

Track 9 Filename C:\IndispensableAS\Vol.6\09 - Dancing On The Ceiling.wav

Pre-gap length 0:00:02.00

Peak level 73.9 % Track quality 100.0 % Test CRC C6B6C705 Copy CRC C6B6C705 Copy OK

Track 10 Filename C:\IndispensableAS\Vol.6\10 - I Can't Get Started With You.wav

Pre-gap length 0:00:02.17

Peak level 72.6 % Track quality 100.0 % Test CRC CDAD0559 Copy CRC CDAD0559 Copy OK

Track 11 Filename C:\IndispensableAS\Vol.6\11 - Just Floatin' Along.wav

Pre-gap length 0:00:02.82

Peak level 74.6 % Track quality 100.0 % Test CRC 03929E36 Copy CRC 03929E36 Copy OK

Track 12 Filename C:\IndispensableAS\Vol.6\12 - I Can't Escape From You.wav

Pre-gap length 0:00:02.20

Peak level 83.7 % Track quality 100.0 % Test CRC 6E0DC945 Copy CRC 6E0DC945 Copy OK

Track 13 Filename C:\IndispensableAS\Vol.6\13 - Scuttlebutt.wav

Pre-gap length 0:00:01.66

Peak level 68.0 % Track quality 100.0 % Test CRC 8C0CFF98 Copy CRC 8C0CFF98 Copy OK

Track 14 Filename C:\IndispensableAS\Vol.6\14 - The Gentle Grifter.wav

Pre-gap length 0:00:01.66

Peak level 83.3 % Track quality 100.0 % Test CRC C5978914 Copy CRC C5978914 Copy OK

Track 15 Filename C:\IndispensableAS\Vol.6\15 - Mysterioso.wav

Pre-gap length 0:00:01.53

Peak level 64.8 % Track quality 100.0 % Test CRC 483D4869 Copy CRC 483D4869 Copy OK

Track 16 Filename C:\IndispensableAS\Vol.6\16 - Hop, Skip And Jump.wav

Pre-gap length 0:00:02.33

Peak level 56.1 % Track quality 100.0 % Test CRC 0EDE57E5 Copy CRC 0EDE57E5 Copy OK

No errors occured

End of status report


Трекер:  [ 24-Фев-2012 07:40 ]

  

Скачать .torrent

Размер .torrent файла 27 KB


Размер: 1.13 GB
Хэш (hash) релиза: 5945b9446b85051dbe0521e91763bab6622f3925

Еще никто не оставлял запись к записи скачать торрент Artie Shaw — The Indispensable Artie Shaw . Будь первым!

!Обратная связь