Скачать через торрент музыку Red Nichols - 1929 {The Chronological Classics, 1332} - 2003, FLAC бесплатно без регистрации torrent

Если у вас наблюдаются проблемы со скриншотами, переходом по ссылками, скачиванием торрентов - проблемы в блокировщике рекламы AdBlock. #хорошегоДня!


Статистика раздачи
Размер:  185 MB   |    Зарегистрирован:  5 лет 7 месяцев   |    .torrent скачан:  35 раз   |   
Раздают:  1  
   
Загрузка...
 
Автор Сообщение

Umakiro

avatar Umakiro


Red Nichols – 1929 {The Chronological Classics, 1332}

Жанр: Swing, New Orleans Jazz
Год издания диска: 2003
Издатель (лейбл): Classics
Номер по каталогу: 1332
Аудиокодек: FLAC (*.flac)
Тип рипа: tracks+.cue
Битрейт аудио: lossless
Продолжительность: 78:48
Источник: web
Наличие сканов в содержимом раздачи: да

Треклист:
01. Alice Blue Gown (2:48)
02. Allah's Holiday (3:21)
03. Roses Of Picardy (2:41)
04. I'm Marching Home To You (vocal) (3:11)
05. I'm Marching Home To You (instr.) (3:06)
06. Bulding A Nest For Mary (vocal) (3:10)
07. Building A Nest For Mary (instr.) (3:09)
08. I Used To Love Her In The Moonlight (vocal) (3:05)
09. I Used To Love Her In The Moonlight (instr.) (3:05)
10. Indiana (2:42)
11. Dinah (3:18)
12. On The Alamo (vocal) (3:07)
13. On The Alamo (instr.) (3:07)
14. Sally, Won't You Come Back? (4:22)
15. It Had To Be You (4:48)
16. I'll See You In My Dreams (4:38)
17. Some Of These Days (4:18)
18. Who Cares? (3:20)
19. Rose Of Washington Square (2:53)
20. I May Be Wrong, But I Think You're Wonderful (2:57)
21. The New Yorkers (3:09)
22. They Didn't Believe Me (2:57)
23. Wait For The Happy Ending (2:41)
24. Can't We Be Friends? (2:57)
  
Exact Audio Copy V0.99 prebeta 4 from 23. January 2008

EAC extraction logfile from 10. January 2009, 10:47

Red Nichols / 1929

Used drive : SONY CDRWDVD CRX310S Adapter: 0 ID: 1

Read mode : SecureUtilize accurate stream : YesDefeat audio cache : YesMake use of C2 pointers : No

Read offset correction : 6Overread into Lead-In and Lead-Out : NoFill up missing offset samples with silence : YesDelete leading and trailing silent blocks : NoNull samples used in CRC calculations : YesUsed interface : Installed external ASPI interfaceGap handling : Appended to previous track

Used output format : User Defined EncoderSelected bitrate : 768 kBit/sQuality : HighAdd ID3 tag : NoCommand line compressor : C:\Program Files\Exact Audio Copy\Flac\flac.exeAdditional command line options : -V -8 -T "artist=%a" -T "title=%t" -T "album=%g" -T "date=%y" -T "tracknumber=%n" -T "genre=%m" -T "comment=EAC 0.99pb4 / FLAC 1.2.1 q8" %s

TOC of the extracted CD

Track | Start | Length | Start sector | End sector --------------------------------------------------------- 1 | 0:00.32 | 2:47.38 | 32 | 12594 2 | 2:47.70 | 3:20.38 | 12595 | 27632 3 | 6:08.33 | 2:40.71 | 27633 | 39703 4 | 8:49.29 | 3:10.59 | 39704 | 54012 5 | 12:00.13 | 3:06.02 | 54013 | 67964 6 | 15:06.15 | 3:09.61 | 67965 | 82200 7 | 18:16.01 | 3:08.53 | 82201 | 96353 8 | 21:24.54 | 3:04.39 | 96354 | 110192 9 | 24:29.18 | 3:04.58 | 110193 | 124050 10 | 27:34.01 | 2:42.34 | 124051 | 136234 11 | 30:16.35 | 3:17.42 | 136235 | 151051 12 | 33:34.02 | 3:06.41 | 151052 | 165042 13 | 36:40.43 | 3:07.22 | 165043 | 179089 14 | 39:47.65 | 4:21.67 | 179090 | 198731 15 | 44:09.57 | 4:48.25 | 198732 | 220356 16 | 48:58.07 | 4:38.02 | 220357 | 241208 17 | 53:36.09 | 4:18.23 | 241209 | 260581 18 | 57:54.32 | 3:19.51 | 260582 | 275557 19 | 61:14.08 | 2:53.06 | 275558 | 288538 20 | 64:07.14 | 2:56.56 | 288539 | 301794 21 | 67:03.70 | 3:08.74 | 301795 | 315968 22 | 70:12.69 | 2:57.04 | 315969 | 329247 23 | 73:09.73 | 2:41.06 | 329248 | 341328 24 | 75:51.04 | 2:57.03 | 341329 | 354606

Track 1

Filename J:\New Rips\Red Nichols - 1929 (1929) [FLAC]\01 - Alice Blue Gown.wav

Pre-gap length 0:00:02.42

Peak level 99.7 % Track quality 100.0 % Test CRC DA4C3DED Copy CRC DA4C3DED Track not present in AccurateRip database Copy OK

Track 2

Filename J:\New Rips\Red Nichols - 1929 (1929) [FLAC]\02 - Allah's Holiday.wav

Pre-gap length 0:00:01.60

Peak level 99.7 % Track quality 100.0 % Test CRC 3E8C4CCE Copy CRC 3E8C4CCE Track not present in AccurateRip database Copy OK

Track 3

Filename J:\New Rips\Red Nichols - 1929 (1929) [FLAC]\03 - Roses Of Picardy.wav

Pre-gap length 0:00:01.60

Peak level 99.7 % Track quality 100.0 % Test CRC C0BDA53E Copy CRC C0BDA53E Track not present in AccurateRip database Copy OK

Track 4

Filename J:\New Rips\Red Nichols - 1929 (1929) [FLAC]\04 - I'm Marching Home To You (vocal).wav

Pre-gap length 0:00:01.60

Peak level 99.7 % Track quality 100.0 % Test CRC 53373087 Copy CRC 53373087 Track not present in AccurateRip database Copy OK

Track 5

Filename J:\New Rips\Red Nichols - 1929 (1929) [FLAC]\05 - I'm Marching Home To You (instr.).wav

Pre-gap length 0:00:01.60

Peak level 99.7 % Track quality 100.0 % Test CRC F97C4D8F Copy CRC F97C4D8F Track not present in AccurateRip database Copy OK

Track 6

Filename J:\New Rips\Red Nichols - 1929 (1929) [FLAC]\06 - Bulding A Nest For Mary (vocal).wav

Pre-gap length 0:00:01.60

Peak level 92.8 % Track quality 100.0 % Test CRC EBEAEA06 Copy CRC EBEAEA06 Track not present in AccurateRip database Copy OK

Track 7

Filename J:\New Rips\Red Nichols - 1929 (1929) [FLAC]\07 - Building A Nest For Mary (instr.).wav

Pre-gap length 0:00:01.60

Peak level 99.7 % Track quality 100.0 % Test CRC 9DC6B1FB Copy CRC 9DC6B1FB Track not present in AccurateRip database Copy OK

Track 8

Filename J:\New Rips\Red Nichols - 1929 (1929) [FLAC]\08 - I Used To Love Her In The Moonlight (Vocal).wav

Pre-gap length 0:00:01.60

Peak level 99.7 % Track quality 100.0 % Test CRC 7A806333 Copy CRC 7A806333 Track not present in AccurateRip database Copy OK

Track 9

Filename J:\New Rips\Red Nichols - 1929 (1929) [FLAC]\09 - I Used To Love Her In The Moonlight (Instr.).wav

Pre-gap length 0:00:01.60

Peak level 90.8 % Track quality 100.0 % Test CRC 3C3C2D3F Copy CRC 3C3C2D3F Track not present in AccurateRip database Copy OK

Track 10

Filename J:\New Rips\Red Nichols - 1929 (1929) [FLAC]\10 - (Back Home Again In) Indiana.wav

Pre-gap length 0:00:01.60

Peak level 99.7 % Track quality 100.0 % Test CRC 64451335 Copy CRC 64451335 Track not present in AccurateRip database Copy OK

Track 11

Filename J:\New Rips\Red Nichols - 1929 (1929) [FLAC]\11 - Dinah.wav

Pre-gap length 0:00:01.60

Peak level 99.7 % Track quality 99.9 % Test CRC 74838D5F Copy CRC 74838D5F Track not present in AccurateRip database Copy OK

Track 12

Filename J:\New Rips\Red Nichols - 1929 (1929) [FLAC]\12 - On The Alamo (vocal).wav

Pre-gap length 0:00:01.60

Peak level 99.7 % Track quality 100.0 % Test CRC 5DEC475E Copy CRC 5DEC475E Track not present in AccurateRip database Copy OK

Track 13

Filename J:\New Rips\Red Nichols - 1929 (1929) [FLAC]\13 - On The Alamo (instr.).wav

Pre-gap length 0:00:01.60

Peak level 99.7 % Track quality 99.9 % Test CRC EA892018 Copy CRC EA892018 Track not present in AccurateRip database Copy OK

Track 14

Filename J:\New Rips\Red Nichols - 1929 (1929) [FLAC]\14 - Sally, Won't You Come Back .wav

Pre-gap length 0:00:01.60

Peak level 99.6 % Track quality 100.0 % Test CRC 7EC5326D Copy CRC 7EC5326D Track not present in AccurateRip database Copy OK

Track 15

Filename J:\New Rips\Red Nichols - 1929 (1929) [FLAC]\15 - It Had To Be You.wav

Pre-gap length 0:00:01.60

Peak level 99.7 % Track quality 100.0 % Test CRC 3F5F02E0 Copy CRC 3F5F02E0 Track not present in AccurateRip database Copy OK

Track 16

Filename J:\New Rips\Red Nichols - 1929 (1929) [FLAC]\16 - I'll See You In My Dreams.wav

Pre-gap length 0:00:01.60

Peak level 99.7 % Track quality 100.0 % Test CRC 57E8E311 Copy CRC 57E8E311 Track not present in AccurateRip database Copy OK

Track 17

Filename J:\New Rips\Red Nichols - 1929 (1929) [FLAC]\17 - Some Of These Days.wav

Pre-gap length 0:00:01.60

Peak level 99.7 % Track quality 100.0 % Test CRC 2B4788BF Copy CRC 2B4788BF Track not present in AccurateRip database Copy OK

Track 18

Filename J:\New Rips\Red Nichols - 1929 (1929) [FLAC]\18 - Who Cares .wav

Pre-gap length 0:00:01.60

Peak level 99.7 % Track quality 100.0 % Test CRC 70214E12 Copy CRC 70214E12 Track not present in AccurateRip database Copy OK

Track 19

Filename J:\New Rips\Red Nichols - 1929 (1929) [FLAC]\19 - Rose Of Washington Square.wav

Pre-gap length 0:00:01.60

Peak level 97.7 % Track quality 100.0 % Test CRC 4E763C4F Copy CRC 4E763C4F Track not present in AccurateRip database Copy OK

Track 20

Filename J:\New Rips\Red Nichols - 1929 (1929) [FLAC]\20 - I May Be Wrong, But I Think You're Wonderful.wav

Pre-gap length 0:00:01.60

Peak level 99.7 % Track quality 100.0 % Test CRC 07E6207D Copy CRC 07E6207D Track not present in AccurateRip database Copy OK

Track 21

Filename J:\New Rips\Red Nichols - 1929 (1929) [FLAC]\21 - The New Yorkers.wav

Pre-gap length 0:00:01.60

Peak level 99.7 % Track quality 100.0 % Test CRC 27631D14 Copy CRC 27631D14 Track not present in AccurateRip database Copy OK

Track 22

Filename J:\New Rips\Red Nichols - 1929 (1929) [FLAC]\22 - They Didn't Believe Me.wav

Pre-gap length 0:00:01.60

Peak level 90.9 % Track quality 100.0 % Test CRC 1A537EF2 Copy CRC 1A537EF2 Track not present in AccurateRip database Copy OK

Track 23

Filename J:\New Rips\Red Nichols - 1929 (1929) [FLAC]\23 - Wait For The Happy Ending.wav

Pre-gap length 0:00:01.60

Peak level 98.6 % Track quality 100.0 % Test CRC 738DCE60 Copy CRC 738DCE60 Track not present in AccurateRip database Copy OK

Track 24

Filename J:\New Rips\Red Nichols - 1929 (1929) [FLAC]\24 - Can't We Be Friends .wav

Pre-gap length 0:00:01.60

Peak level 99.4 % Track quality 100.0 % Test CRC 276C9054 Copy CRC 276C9054 Track not present in AccurateRip database Copy OK

None of the tracks are present in the AccurateRip database

No errors occurred

End of status report
  
REM GENRE JazzREM DATE 2003REM DISCID 60127818REM COMMENT "ExactAudioCopy v0.99pb4"PERFORMER "Red Nichols"TITLE "1929 {Chronological Classics, 1332}"FILE "01. Alice Blue Gown.flac" WAVE TRACK 01 AUDIO TITLE "Alice Blue Gown" PERFORMER "Red Nichols" PREGAP 00:00:32 INDEX 01 00:00:00 TRACK 02 AUDIO TITLE "Allah's Holiday" PERFORMER "Red Nichols" INDEX 00 02:45:68FILE "02. Allah's Holiday.flac" WAVE INDEX 01 00:00:00 TRACK 03 AUDIO TITLE "Roses Of Picardy" PERFORMER "Red Nichols" INDEX 00 03:18:68FILE "03. Roses Of Picardy.flac" WAVE INDEX 01 00:00:00 TRACK 04 AUDIO TITLE "I'm Marching Home To You (vocal)" PERFORMER "Red Nichols" INDEX 00 02:39:26FILE "04. I'm Marching Home To You (vocal).flac" WAVE INDEX 01 00:00:00 TRACK 05 AUDIO TITLE "I'm Marching Home To You (instr.)" PERFORMER "Red Nichols" INDEX 00 03:09:14FILE "05. I'm Marching Home To You (instr.).flac" WAVE INDEX 01 00:00:00 TRACK 06 AUDIO TITLE "Bulding A Nest For Mary (vocal)" PERFORMER "Red Nichols" INDEX 00 03:04:32FILE "06. Bulding A Nest For Mary (vocal).flac" WAVE INDEX 01 00:00:00 TRACK 07 AUDIO TITLE "Building A Nest For Mary (instr.)" PERFORMER "Red Nichols" INDEX 00 03:08:16FILE "07. Building A Nest For Mary (instr.).flac" WAVE INDEX 01 00:00:00 TRACK 08 AUDIO TITLE "I Used To Love Her In The Moonlight (vocal)" PERFORMER "Red Nichols" INDEX 00 03:07:08FILE "08. I Used To Love Her In The Moonlight (vocal).flac" WAVE INDEX 01 00:00:00 TRACK 09 AUDIO TITLE "I Used To Love Her In The Moonlight (instr.)" PERFORMER "Red Nichols" INDEX 00 03:02:69FILE "09. I Used To Love Her In The Moonlight (instr.).flac" WAVE INDEX 01 00:00:00 TRACK 10 AUDIO TITLE "Indiana" PERFORMER "Red Nichols" INDEX 00 03:03:13FILE "10. Indiana.flac" WAVE INDEX 01 00:00:00 TRACK 11 AUDIO TITLE "Dinah" PERFORMER "Red Nichols" INDEX 00 02:40:64FILE "11. Dinah.flac" WAVE INDEX 01 00:00:00 TRACK 12 AUDIO TITLE "On The Alamo (vocal)" PERFORMER "Red Nichols" INDEX 00 03:15:72FILE "12. On The Alamo (vocal).flac" WAVE INDEX 01 00:00:00 TRACK 13 AUDIO TITLE "On The Alamo (instr.)" PERFORMER "Red Nichols" INDEX 00 03:04:71FILE "13. On The Alamo (instr.).flac" WAVE INDEX 01 00:00:00 TRACK 14 AUDIO TITLE "Sally, Won't You Come Back?" PERFORMER "Red Nichols" INDEX 00 03:05:52FILE "14. Sally, Won't You Come Back.flac" WAVE INDEX 01 00:00:00 TRACK 15 AUDIO TITLE "It Had To Be You" PERFORMER "Red Nichols" INDEX 00 04:20:22FILE "15. It Had To Be You.flac" WAVE INDEX 01 00:00:00 TRACK 16 AUDIO TITLE "I'll See You In My Dreams" PERFORMER "Red Nichols" INDEX 00 04:46:55FILE "16. I'll See You In My Dreams.flac" WAVE INDEX 01 00:00:00 TRACK 17 AUDIO TITLE "Some Of These Days" PERFORMER "Red Nichols" INDEX 00 04:36:32FILE "17. Some Of These Days.flac" WAVE INDEX 01 00:00:00 TRACK 18 AUDIO TITLE "Who Cares?" PERFORMER "Red Nichols" INDEX 00 04:16:53FILE "18. Who Cares.flac" WAVE INDEX 01 00:00:00 TRACK 19 AUDIO TITLE "Rose Of Washington Square" PERFORMER "Red Nichols" INDEX 00 03:18:06FILE "19. Rose Of Washington Square.flac" WAVE INDEX 01 00:00:00 TRACK 20 AUDIO TITLE "I May Be Wrong, But I Think You're Wonderful" PERFORMER "Red Nichols" INDEX 00 02:51:36FILE "20. I May Be Wrong, But I Think You're Wonderful.flac" WAVE INDEX 01 00:00:00 TRACK 21 AUDIO TITLE "The New Yorkers" PERFORMER "Red Nichols" INDEX 00 02:55:11FILE "21. The New Yorkers.flac" WAVE INDEX 01 00:00:00 TRACK 22 AUDIO TITLE "They Didn't Believe Me" PERFORMER "Red Nichols" INDEX 00 03:07:29FILE "22. They Didn't Believe Me.flac" WAVE INDEX 01 00:00:00 TRACK 23 AUDIO TITLE "Wait For The Happy Ending" PERFORMER "Red Nichols" INDEX 00 02:55:34FILE "23. Wait For The Happy Ending.flac" WAVE INDEX 01 00:00:00 TRACK 24 AUDIO TITLE "Can't We Be Friends?" PERFORMER "Red Nichols" INDEX 00 02:39:36FILE "24. Can't We Be Friends.flac" WAVE INDEX 01 00:00:00



Трекер:  [ 24-Фев-2012 07:39 ]

  

Скачать .torrent

Размер .torrent файла 17 KB


Размер: 185 MB
Хэш (hash) релиза: d84cbe6a07f2ee5c7f2b33e1ba854440d9332d73

Еще никто не оставлял запись к записи скачать торрент Red Nichols - 1929 {The Chronological Classics, 1332} - 2003, FLAC . Будь первым!

!Обратная связь