Скачать через торрент музыку Tord Gustavsen Quartet - The Well - 2012, FLAC бесплатно без регистрации torrent

Если у вас наблюдаются проблемы со скриншотами, переходом по ссылками, скачиванием торрентов - проблемы в блокировщике рекламы AdBlock. #хорошегоДня!


Статистика раздачи
Размер:  221 MB   |    Зарегистрирован:  5 лет 7 месяцев   |    .torrent скачан:  64 раза   |   
Раздают:  1  
   
Загрузка...
 
Автор Сообщение

Umakiro

avatar Umakiro


Tord Gustavsen Quartet / The Well

Жанр: Contemporary Jazz
Год издания диска: 2012
Издатель (лейбл): ECM Records
Номер по каталогу: ECM 2237
Страна: Norway
Аудиокодек: FLAC (*.flac)
Тип рипа: tracks+.cue
Битрейт аудио: lossless
Продолжительность: 53:19
Источник (релизер): artmuss
Наличие сканов в содержимом раздачи: нет
Треклист:
01 Prelude
02 Playing
03 Suite
04 Communion
05 Circling
06 Glasgow Intro
07 On Every Corner
08 The Well
09 Communion
10 Intuition
11 Inside

http://www.myspace.com/tordgustavsentrio
  
X Lossless Decoder version 20120120 (139.0)

XLD extraction logfile from 2012-01-28 00:41:12 +0000

Tord Gustavsen Quartet / The Well

Used drive : HL-DT-ST DVDRAM GP08NU6B (revision 1.00)

Ripper mode : XLD Secure RipperDisable audio cache : OK for the drive with a cache less than 1375KiBMake use of C2 pointers : NORead offset correction : 103Max retry count : 20Gap status : Analyzed, Appended

TOC of the extracted CD Track | Start | Length | Start sector | End sector --------------------------------------------------------- 1 | 00:00:00 | 02:51:11 | 0 | 12835 2 | 02:51:11 | 05:38:52 | 12836 | 38237 3 | 08:29:63 | 08:22:25 | 38238 | 75912 4 | 16:52:13 | 04:36:39 | 75913 | 96651 5 | 21:28:52 | 04:42:31 | 96652 | 117832 6 | 26:11:08 | 01:13:50 | 117833 | 123357 7 | 27:24:58 | 05:14:67 | 123358 | 146974 8 | 32:39:50 | 05:50:58 | 146975 | 173282 9 | 38:30:33 | 05:58:42 | 173283 | 200174 10 | 44:29:00 | 04:33:53 | 200175 | 220702 11 | 49:02:53 | 04:16:42 | 220703 | 239944

AccurateRip Summary Disc not found in AccurateRip DB.

All Tracks Album gain : 1.97 dB Peak : 0.985535 Statistics Read error : 0 Jitter error (maybe fixed) : 0 Retry sector count : 0 Damaged sector count : 0

Track 01 Filename : /Volumes/DATA/rips/Tord Gustavsen Quartet - 2012 - The Well [FLAC (level 5)]/01 Prelude.flac /Volumes/DATA/rips/Tord Gustavsen Quartet - 2012 - The Well [Apple Lossless]/01 Prelude.m4a /Volumes/DATA/rips/Tord Gustavsen Quartet - 2012 - The Well [LAME MP3 (CBR 320kbps)]/01 Prelude.mp3 Pre-gap length : 00:02:00

Track gain : 5.63 dB Peak : 0.495209 CRC32 hash (test run) : 8256DB25 CRC32 hash : 8256DB25 CRC32 hash (skip zero) : 9374572D AccurateRip signature : AD9C8801 ->Track not present in AccurateRip database. Statistics Read error : 0 Jitter error (maybe fixed) : 0 Retry sector count : 0 Damaged sector count : 0

Track 02 Filename : /Volumes/DATA/rips/Tord Gustavsen Quartet - 2012 - The Well [FLAC (level 5)]/02 Playing.flac /Volumes/DATA/rips/Tord Gustavsen Quartet - 2012 - The Well [Apple Lossless]/02 Playing.m4a /Volumes/DATA/rips/Tord Gustavsen Quartet - 2012 - The Well [LAME MP3 (CBR 320kbps)]/02 Playing.mp3 Pre-gap length : 00:02:44

Track gain : 1.91 dB Peak : 0.985443 CRC32 hash (test run) : 4E8D8D3A CRC32 hash : 4E8D8D3A CRC32 hash (skip zero) : 45085EE6 AccurateRip signature : A3D46491 ->Track not present in AccurateRip database. Statistics Read error : 0 Jitter error (maybe fixed) : 0 Retry sector count : 0 Damaged sector count : 0

Track 03 Filename : /Volumes/DATA/rips/Tord Gustavsen Quartet - 2012 - The Well [FLAC (level 5)]/03 Suite.flac /Volumes/DATA/rips/Tord Gustavsen Quartet - 2012 - The Well [Apple Lossless]/03 Suite.m4a /Volumes/DATA/rips/Tord Gustavsen Quartet - 2012 - The Well [LAME MP3 (CBR 320kbps)]/03 Suite.mp3 Pre-gap length : 00:03:14

Track gain : 0.90 dB Peak : 0.985535 CRC32 hash (test run) : 0C1CCAAD CRC32 hash : 0C1CCAAD CRC32 hash (skip zero) : 9F14E830 AccurateRip signature : 523F82E9 ->Track not present in AccurateRip database. Statistics Read error : 0 Jitter error (maybe fixed) : 0 Retry sector count : 0 Damaged sector count : 0

Track 04 Filename : /Volumes/DATA/rips/Tord Gustavsen Quartet - 2012 - The Well [FLAC (level 5)]/04 Communion.flac /Volumes/DATA/rips/Tord Gustavsen Quartet - 2012 - The Well [Apple Lossless]/04 Communion.m4a /Volumes/DATA/rips/Tord Gustavsen Quartet - 2012 - The Well [LAME MP3 (CBR 320kbps)]/04 Communion.mp3 Pre-gap length : 00:02:44

Track gain : 5.53 dB Peak : 0.408508 CRC32 hash (test run) : 1ED08FE6 CRC32 hash : 1ED08FE6 CRC32 hash (skip zero) : 1EABDA63 AccurateRip signature : 8C2888D7 ->Track not present in AccurateRip database. Statistics Read error : 0 Jitter error (maybe fixed) : 0 Retry sector count : 0 Damaged sector count : 0

Track 05 Filename : /Volumes/DATA/rips/Tord Gustavsen Quartet - 2012 - The Well [FLAC (level 5)]/05 Circling.flac /Volumes/DATA/rips/Tord Gustavsen Quartet - 2012 - The Well [Apple Lossless]/05 Circling.m4a /Volumes/DATA/rips/Tord Gustavsen Quartet - 2012 - The Well [LAME MP3 (CBR 320kbps)]/05 Circling.mp3 Pre-gap length : 00:02:44

Track gain : 2.81 dB Peak : 0.769806 CRC32 hash (test run) : CFF3995A CRC32 hash : CFF3995A CRC32 hash (skip zero) : 80562806 AccurateRip signature : F9B430AB ->Track not present in AccurateRip database. Statistics Read error : 0 Jitter error (maybe fixed) : 0 Retry sector count : 0 Damaged sector count : 0

Track 06 Filename : /Volumes/DATA/rips/Tord Gustavsen Quartet - 2012 - The Well [FLAC (level 5)]/06 Glasgow Intro.flac /Volumes/DATA/rips/Tord Gustavsen Quartet - 2012 - The Well [Apple Lossless]/06 Glasgow Intro.m4a /Volumes/DATA/rips/Tord Gustavsen Quartet - 2012 - The Well [LAME MP3 (CBR 320kbps)]/06 Glasgow Intro.mp3 Pre-gap length : 00:03:20

Track gain : 11.05 dB Peak : 0.195068 CRC32 hash (test run) : 59ED2F12 CRC32 hash : 59ED2F12 CRC32 hash (skip zero) : 7213D7AD AccurateRip signature : A04986FF ->Track not present in AccurateRip database. Statistics Read error : 0 Jitter error (maybe fixed) : 0 Retry sector count : 0 Damaged sector count : 0

Track 07 Filename : /Volumes/DATA/rips/Tord Gustavsen Quartet - 2012 - The Well [FLAC (level 5)]/07 On Every Corner.flac /Volumes/DATA/rips/Tord Gustavsen Quartet - 2012 - The Well [Apple Lossless]/07 On Every Corner.m4a /Volumes/DATA/rips/Tord Gustavsen Quartet - 2012 - The Well [LAME MP3 (CBR 320kbps)]/07 On Every Corner.mp3

Track gain : -0.16 dB Peak : 0.845337 CRC32 hash (test run) : 1A292025 CRC32 hash : 1A292025 CRC32 hash (skip zero) : FA7622C3 AccurateRip signature : 0FE819A1 ->Track not present in AccurateRip database. Statistics Read error : 0 Jitter error (maybe fixed) : 0 Retry sector count : 0 Damaged sector count : 0

Track 08 Filename : /Volumes/DATA/rips/Tord Gustavsen Quartet - 2012 - The Well [FLAC (level 5)]/08 The Well.flac /Volumes/DATA/rips/Tord Gustavsen Quartet - 2012 - The Well [Apple Lossless]/08 The Well.m4a /Volumes/DATA/rips/Tord Gustavsen Quartet - 2012 - The Well [LAME MP3 (CBR 320kbps)]/08 The Well.mp3 Pre-gap length : 00:02:46

Track gain : 1.43 dB Peak : 0.943817 CRC32 hash (test run) : 44F34838 CRC32 hash : 44F34838 CRC32 hash (skip zero) : A74C106E AccurateRip signature : 8DBD7122 ->Track not present in AccurateRip database. Statistics Read error : 0 Jitter error (maybe fixed) : 0 Retry sector count : 0 Damaged sector count : 0

Track 09 Filename : /Volumes/DATA/rips/Tord Gustavsen Quartet - 2012 - The Well [FLAC (level 5)]/09 Communion, var..flac /Volumes/DATA/rips/Tord Gustavsen Quartet - 2012 - The Well [Apple Lossless]/09 Communion, var..m4a /Volumes/DATA/rips/Tord Gustavsen Quartet - 2012 - The Well [LAME MP3 (CBR 320kbps)]/09 Communion, var..mp3 Pre-gap length : 00:02:46

Track gain : 6.79 dB Peak : 0.455414 CRC32 hash (test run) : 64CE23B8 CRC32 hash : 64CE23B8 CRC32 hash (skip zero) : F4EB387E AccurateRip signature : 6E8E2917 ->Track not present in AccurateRip database. Statistics Read error : 0 Jitter error (maybe fixed) : 0 Retry sector count : 0 Damaged sector count : 0

Track 10 Filename : /Volumes/DATA/rips/Tord Gustavsen Quartet - 2012 - The Well [FLAC (level 5)]/10 Intuition.flac /Volumes/DATA/rips/Tord Gustavsen Quartet - 2012 - The Well [Apple Lossless]/10 Intuition.m4a /Volumes/DATA/rips/Tord Gustavsen Quartet - 2012 - The Well [LAME MP3 (CBR 320kbps)]/10 Intuition.mp3 Pre-gap length : 00:04:30

Track gain : 1.37 dB Peak : 0.744781 CRC32 hash (test run) : 03F50FE1 CRC32 hash : 03F50FE1 CRC32 hash (skip zero) : 41CC97A9 AccurateRip signature : 38B479F5 ->Track not present in AccurateRip database. Statistics Read error : 0 Jitter error (maybe fixed) : 0 Retry sector count : 0 Damaged sector count : 0

Track 11 Filename : /Volumes/DATA/rips/Tord Gustavsen Quartet - 2012 - The Well [FLAC (level 5)]/11 Inside.flac /Volumes/DATA/rips/Tord Gustavsen Quartet - 2012 - The Well [Apple Lossless]/11 Inside.m4a /Volumes/DATA/rips/Tord Gustavsen Quartet - 2012 - The Well [LAME MP3 (CBR 320kbps)]/11 Inside.mp3 Pre-gap length : 00:02:28

Track gain : 5.66 dB Peak : 0.422668 CRC32 hash (test run) : A31BD718 CRC32 hash : A31BD718 CRC32 hash (skip zero) : 59A9BD06 AccurateRip signature : 34CC151C ->Track not present in AccurateRip database. Statistics Read error : 0 Jitter error (maybe fixed) : 0 Retry sector count : 0 Damaged sector count : 0

No errors occurred

End of status report
  
TITLE "The Well"PERFORMER "Tord Gustavsen Quartet"CATALOG 0602527858968REM GENRE "Jazz"REM DATE "2012"REM DISCNUMBER 1REM TOTALDISCS 1REM DISCID 830C7F0BREM REPLAYGAIN_ALBUM_GAIN 1.97 dBREM REPLAYGAIN_ALBUM_PEAK 0.985535FILE "01 Prelude.flac" WAVE TRACK 01 AUDIO TITLE "Prelude" ISRC DEB331123701 REM REPLAYGAIN_TRACK_GAIN 5.63 dB REM REPLAYGAIN_TRACK_PEAK 0.495209 INDEX 01 00:00:00 TRACK 02 AUDIO TITLE "Playing" ISRC DEB331123702 REM REPLAYGAIN_TRACK_GAIN 1.91 dB REM REPLAYGAIN_TRACK_PEAK 0.985443 INDEX 00 02:48:42FILE "02 Playing.flac" WAVE INDEX 01 00:00:00 TRACK 03 AUDIO TITLE "Suite" ISRC DEB331123703 REM REPLAYGAIN_TRACK_GAIN 0.90 dB REM REPLAYGAIN_TRACK_PEAK 0.985535 INDEX 00 05:35:38FILE "03 Suite.flac" WAVE INDEX 01 00:00:00 TRACK 04 AUDIO TITLE "Communion" ISRC DEB331123704 REM REPLAYGAIN_TRACK_GAIN 5.53 dB REM REPLAYGAIN_TRACK_PEAK 0.408508 INDEX 00 08:19:56FILE "04 Communion.flac" WAVE INDEX 01 00:00:00 TRACK 05 AUDIO TITLE "Circling" ISRC DEB331123705 REM REPLAYGAIN_TRACK_GAIN 2.81 dB REM REPLAYGAIN_TRACK_PEAK 0.769806 INDEX 00 04:33:70FILE "05 Circling.flac" WAVE INDEX 01 00:00:00 TRACK 06 AUDIO TITLE "Glasgow Intro" ISRC DEB331123706 REM REPLAYGAIN_TRACK_GAIN 11.05 dB REM REPLAYGAIN_TRACK_PEAK 0.195068 INDEX 00 04:39:11FILE "06 Glasgow Intro.flac" WAVE INDEX 01 00:00:00FILE "07 On Every Corner.flac" WAVE TRACK 07 AUDIO TITLE "On Every Corner" ISRC DEB331123707 REM REPLAYGAIN_TRACK_GAIN -0.16 dB REM REPLAYGAIN_TRACK_PEAK 0.845337 INDEX 01 00:00:00 TRACK 08 AUDIO TITLE "The Well" ISRC DEB331123708 REM REPLAYGAIN_TRACK_GAIN 1.43 dB REM REPLAYGAIN_TRACK_PEAK 0.943817 INDEX 00 05:12:21FILE "08 The Well.flac" WAVE INDEX 01 00:00:00 TRACK 09 AUDIO TITLE "Communion, var." ISRC DEB331123709 REM REPLAYGAIN_TRACK_GAIN 6.79 dB REM REPLAYGAIN_TRACK_PEAK 0.455414 INDEX 00 05:48:12FILE "09 Communion, var..flac" WAVE INDEX 01 00:00:00 TRACK 10 AUDIO TITLE "Intuition" ISRC DEB331123710 REM REPLAYGAIN_TRACK_GAIN 1.37 dB REM REPLAYGAIN_TRACK_PEAK 0.744781 INDEX 00 05:54:12FILE "10 Intuition.flac" WAVE INDEX 01 00:00:00 TRACK 11 AUDIO TITLE "Inside" ISRC DEB331123711 REM REPLAYGAIN_TRACK_GAIN 5.66 dB REM REPLAYGAIN_TRACK_PEAK 0.422668 INDEX 00 04:31:25FILE "11 Inside.flac" WAVE INDEX 01 00:00:00


Трекер:  [ 23-Фев-2012 14:12 ]

  

Скачать .torrent

Размер .torrent файла 18 KB


Размер: 221 MB
Хэш (hash) релиза: ae4b8cd4a4a34ff80a4644615167cfbb7db27ff3

Еще никто не оставлял запись к записи скачать торрент Tord Gustavsen Quartet - The Well - 2012, FLAC . Будь первым!

!Обратная связь