Скачать через торрент музыку Rahsaan Roland Kirk — The Man Who Cried Fire — 2002, FLAC бесплатно без регистрации torrent

Если у вас наблюдаются проблемы со скриншотами, переходом по ссылками, скачиванием торрентов - проблемы в блокировщике рекламы AdBlock. #хорошегоДня!


Статистика раздачи
Размер:  387 MB   |    Зарегистрирован:  5 лет 7 месяцев   |    .torrent скачан:  37 раз   |   
Раздают:  1  
   
Загрузка...
 
Автор Сообщение

Umakiro

avatar Umakiro


Rahsaan Roland Kirk — The Man Who Cried Fire

Жанр: Hard Bop
Год издания диска: 2002
Лейбл: Hyena Records
Номер по каталогу: TMF 9302
Аудио кодек: FLAC (*.flac)
Тип рипа: tracks+.cue
Битрейт аудио: lossless
Продолжительность: 54:03
Риппер: bburl
Сканы есть

Треклист:
01. Slow Blues (10:19)
02. Bye Bye Blackbird (3:32)
03. Multi-Horn Variations (5:08)
04. Unidentified Tenor Selection (2:10)
05. You Did It, You Did It (4:43)
06. New Orleans Fantasy (12:35)
07. Night Train (4:40)
08. Mr. P.C. (3:18)
09. A Visit From The Blues (6:42)
10. Bright Moments (0:57)
  
Exact Audio Copy V0.99 prebeta 4 from 23. January 2008

EAC extraction logfile from 4. March 2008, 22:16

Rahsaan Roland Kirk / The Man Who Cried Fire

Used drive : HP DVD Writer 640v Adapter: 7 ID: 1

Read mode : SecureUtilize accurate stream : YesDefeat audio cache : YesMake use of C2 pointers : No

Read offset correction : 618Overread into Lead-In and Lead-Out : NoFill up missing offset samples with silence : YesDelete leading and trailing silent blocks : NoNull samples used in CRC calculations : YesUsed interface : Installed external ASPI interfaceGap handling : Appended to previous track

Used output format : User Defined EncoderSelected bitrate : 192 kBit/sQuality : HighAdd ID3 tag : NoCommand line compressor : G:\Program Files\MEDIA\filters\Flac official\FLAC\flac.exeAdditional command line options : -8 -V -T "ARTIST=%a" -T "TITLE=%t" -T "ALBUM=%g" -T "DATE=%y" -T "TRACKNUMBER=%n" -T "GENRE=%m" -T "COMMENT=EAC FLAC -8" %s

TOC of the extracted CD

Track | Start | Length | Start sector | End sector --------------------------------------------------------- 1 | 0:00.00 | 10:19.02 | 0 | 46426 2 | 10:19.02 | 3:31.38 | 46427 | 62289 3 | 13:50.40 | 5:07.65 | 62290 | 85379 4 | 18:58.30 | 2:10.30 | 85380 | 95159 5 | 21:08.60 | 4:43.35 | 95160 | 116419 6 | 25:52.20 | 12:34.65 | 116420 | 173034 7 | 38:27.10 | 4:39.52 | 173035 | 194011 8 | 43:06.62 | 3:17.50 | 194012 | 208836 9 | 46:24.37 | 6:42.00 | 208837 | 238986 10 | 53:06.37 | 0:56.53 | 238987 | 243239

Track 1

Filename E:\uTORRENT\ups\Rahsaan Roland Kirk - The Man Who Cried Fire (2002) [FLAC]\01 - Slow Blues.wav

Pre-gap length 0:00:02.00

Peak level 86.0 % Track quality 100.0 % Test CRC D909DA81 Copy CRC D909DA81 Track not present in AccurateRip database Copy OK

Track 2

Filename E:\uTORRENT\ups\Rahsaan Roland Kirk - The Man Who Cried Fire (2002) [FLAC]\02 - Bye Bye Blackbird.wav

Pre-gap length 0:00:07.65

Peak level 99.9 % Track quality 99.9 % Test CRC 18FC7713 Copy CRC 18FC7713 Track not present in AccurateRip database Copy OK

Track 3

Filename E:\uTORRENT\ups\Rahsaan Roland Kirk - The Man Who Cried Fire (2002) [FLAC]\03 - Multi-Horn Variations.wav

Pre-gap length 0:00:07.65

Peak level 92.3 % Track quality 100.0 % Test CRC BF98FC7A Copy CRC BF98FC7A Track not present in AccurateRip database Copy OK

Track 4

Filename E:\uTORRENT\ups\Rahsaan Roland Kirk - The Man Who Cried Fire (2002) [FLAC]\04 - Unidentified Tenor Selection.wav

Pre-gap length 0:00:07.65

Peak level 79.5 % Track quality 100.0 % Test CRC 2AD4EE0A Copy CRC 2AD4EE0A Track not present in AccurateRip database Copy OK

Track 5

Filename E:\uTORRENT\ups\Rahsaan Roland Kirk - The Man Who Cried Fire (2002) [FLAC]\05 - You Did It, You Did It.wav

Pre-gap length 0:00:07.65

Peak level 79.4 % Track quality 100.0 % Test CRC 45E8FE2A Copy CRC 45E8FE2A Track not present in AccurateRip database Copy OK

Track 6

Filename E:\uTORRENT\ups\Rahsaan Roland Kirk - The Man Who Cried Fire (2002) [FLAC]\06 - New Orleans Fantasy.wav

Pre-gap length 0:00:07.65

Peak level 89.1 % Track quality 100.0 % Test CRC 05235E14 Copy CRC 05235E14 Track not present in AccurateRip database Copy OK

Track 7

Filename E:\uTORRENT\ups\Rahsaan Roland Kirk - The Man Who Cried Fire (2002) [FLAC]\07 - Night Train.wav

Pre-gap length 0:00:07.65

Peak level 79.4 % Track quality 100.0 % Test CRC 45627EA7 Copy CRC 45627EA7 Track not present in AccurateRip database Copy OK

Track 8

Filename E:\uTORRENT\ups\Rahsaan Roland Kirk - The Man Who Cried Fire (2002) [FLAC]\08 - MR PC.wav

Pre-gap length 0:00:07.65

Peak level 99.9 % Track quality 100.0 % Test CRC AD5E1D6A Copy CRC AD5E1D6A Track not present in AccurateRip database Copy OK

Track 9

Filename E:\uTORRENT\ups\Rahsaan Roland Kirk - The Man Who Cried Fire (2002) [FLAC]\09 - A Visit From The Blues.wav

Pre-gap length 0:00:07.65

Peak level 99.9 % Track quality 100.0 % Test CRC CEA25E23 Copy CRC CEA25E23 Track not present in AccurateRip database Copy OK

Track 10

Filename E:\uTORRENT\ups\Rahsaan Roland Kirk - The Man Who Cried Fire (2002) [FLAC]\10 - Bright Moments.wav

Pre-gap length 0:00:07.65

Peak level 99.9 % Track quality 100.0 % Test CRC 00F8C098 Copy CRC 00F8C098 Track not present in AccurateRip database Copy OK

None of the tracks are present in the AccurateRip database

No errors occurred

End of status report
  
REM GENRE JazzREM DATE 2002REM DISCID 870CAB0AREM COMMENT "ExactAudioCopy v0.99pb4"PERFORMER "Rahsaan Roland Kirk"TITLE "The Man Who Cried Fire"FILE "01 - Slow Blues.wav" WAVE TRACK 01 AUDIO TITLE "Slow Blues" PERFORMER "Rahsaan Roland Kirk" INDEX 01 00:00:00 TRACK 02 AUDIO TITLE "Bye Bye Blackbird" PERFORMER "Rahsaan Roland Kirk" FLAGS DCP INDEX 00 10:11:12FILE "02 - Bye Bye Blackbird.wav" WAVE INDEX 01 00:00:00 TRACK 03 AUDIO TITLE "Multi-Horn Variations" PERFORMER "Rahsaan Roland Kirk" FLAGS DCP INDEX 00 03:23:48FILE "03 - Multi-Horn Variations.wav" WAVE INDEX 01 00:00:00 TRACK 04 AUDIO TITLE "Unidentified Tenor Selection" PERFORMER "Rahsaan Roland Kirk" FLAGS DCP INDEX 00 05:00:00FILE "04 - Unidentified Tenor Selection.wav" WAVE INDEX 01 00:00:00 TRACK 05 AUDIO TITLE "You Did It, You Did It" PERFORMER "Rahsaan Roland Kirk" FLAGS DCP INDEX 00 02:02:40FILE "05 - You Did It, You Did It.wav" WAVE INDEX 01 00:00:00 TRACK 06 AUDIO TITLE "New Orleans Fantasy" PERFORMER "Rahsaan Roland Kirk" FLAGS DCP INDEX 00 04:35:45FILE "06 - New Orleans Fantasy.wav" WAVE INDEX 01 00:00:00 TRACK 07 AUDIO TITLE "Night Train" PERFORMER "Rahsaan Roland Kirk" FLAGS DCP INDEX 00 12:27:00FILE "07 - Night Train.wav" WAVE INDEX 01 00:00:00 TRACK 08 AUDIO TITLE "MR PC" PERFORMER "Rahsaan Roland Kirk" FLAGS DCP INDEX 00 04:31:62FILE "08 - MR PC.wav" WAVE INDEX 01 00:00:00 TRACK 09 AUDIO TITLE "A Visit From The Blues" PERFORMER "Rahsaan Roland Kirk" FLAGS DCP INDEX 00 03:09:60FILE "09 - A Visit From The Blues.wav" WAVE INDEX 01 00:00:00 TRACK 10 AUDIO TITLE "Bright Moments" PERFORMER "Rahsaan Roland Kirk" FLAGS DCP INDEX 00 06:34:10FILE "10 - Bright Moments.wav" WAVE INDEX 01 00:00:00


Трекер:  [ 23-Фев-2012 14:12 ]

  

Скачать .torrent

Размер .torrent файла 9 KB


Размер: 387 MB
Хэш (hash) релиза: c5ebd30ef42fbe9fea4170c5723a95abf66c45f7

Еще никто не оставлял запись к записи скачать торрент Rahsaan Roland Kirk — The Man Who Cried Fire — 2002, FLAC . Будь первым!

!Обратная связь