Скачать через торрент музыку The Oscar Peterson Trio + The Singers Unlimited - In Tune бесплатно без регистрации torrent

Если у вас наблюдаются проблемы со скриншотами, переходом по ссылками, скачиванием торрентов - проблемы в блокировщике рекламы AdBlock. #хорошегоДня!


Статистика раздачи
Размер:  263 MB   |    Зарегистрирован:  5 лет 8 месяцев   |    .torrent скачан:  46 раз   |   
Раздают:  1  
   
Загрузка...
 
Автор Сообщение

Umakiro

avatar Umakiro


The Oscar Peterson Trio + The Singers Unlimited - In Tune (1971)

Жанр: Bop
Год выпуска диска: 2005
Производитель диска: MPS
Аудио кодек: FLAC
Тип рипа: image+.cue
Битрейт аудио: lossless
Продолжительность: 32:37

Треклист:
01. Sesame Street (2:56)
02. It Never Entered My Mind (4:03)
03. Children's Game (2:43)
04. The Gentle Rain (3:24)
05. A Child Is Born (3:44)
06. The Shadow Of Your Smile (4:33)
07. Catherine (3:04)
08. Once Upon A Summertime (3:29)
09. Here's That Rainy Day (4:40)

Personnel:
Oscar Peterson (p)
Jiri Mraz (b)
Louis Hayes (dr)
Len Dressler, Bonnie Herman, Gene Puerling, Don Shelton (voc)

Rec.: MPS Studio, Villingen, Germany, July, 1971

Сканы: 300 dpi

Автор рипа rusfed96
  
Exact Audio Copy V0.99 prebeta 4 from 23. January 2008

Отчёт EAC об извлечении, выполненном 9. июня 2010, 19:22

The Oscar Peterson Trio + The Singers Unlimited / In Tune

Дисковод: ASUS DRW-2014L1T Adapter: 4 ID: 0

Режим чтения : ДостоверностьИспользование точного потока : ДаОтключение кэша аудио : ДаИспользование указателей C2 : Нет

Коррекция смещения при чтении : 6Способность читать области Lead-in и Lead-out : НетЗаполнение пропущенных сэмплов тишиной : ДаУдаление блоков с тишиной в начале и конце : НетПри вычислениях CRC использовались нулевые сэмплы : ДаИнтерфейс : Встроенный Win32-интерфейс для Win NT/2000

Выходной формат : Пользовательский кодировщикВыбранный битрейт : 128 kBit/sКачество : ВысокийДобавление ID3-тэга : НетУтилита сжатия : C:\Program Files\Exact Audio Copy\Flac\flac.exeДополнительные параметры : -8 -V %s

TOC извлечённого CD

Трек | Старт | Длительность | Начальный сектор | Конечный сектор --------------------------------------------------------------------- 1 | 0:00.00 | 2:55.49 | 0 | 13173 2 | 2:55.49 | 4:03.29 | 13174 | 31427 3 | 6:59.03 | 2:43.14 | 31428 | 43666 4 | 9:42.17 | 3:24.14 | 43667 | 58980 5 | 13:06.31 | 3:44.13 | 58981 | 75793 6 | 16:50.44 | 4:32.60 | 75794 | 96253 7 | 21:23.29 | 3:03.67 | 96254 | 110045 8 | 24:27.21 | 3:29.23 | 110046 | 125743 9 | 27:56.44 | 4:40.07 | 125744 | 146750

Характеристики диапазона извлечения и сообщения об ошибках

Выбранный диапазон

Имя файла C:\Program Files\Exact Audio Copy\Flac\The Oscar Peterson Trio + The Singers Unlimited - In Tune.wav

Пиковый уровень 99.9 % Качество диапазона 100.0 % CRC копии B2406400 Копирование... OK

Ошибок не произошло

AccurateRip: сводка

Трек 1 точность не определена (достоверность 12) [EE0CF858], AccurateRip вернул [C8976130]Трек 2 точность не определена (достоверность 12) [2657662C], AccurateRip вернул [477CD244]Трек 3 точность не определена (достоверность 12) [2EFFA9E3], AccurateRip вернул [473E1343]Трек 4 точность не определена (достоверность 12) [041ED94D], AccurateRip вернул [A368068D]Трек 5 точность не определена (достоверность 12) [F8C53F6E], AccurateRip вернул [D544F256]Трек 6 точность не определена (достоверность 12) [2EF3FB66], AccurateRip вернул [669981E6]Трек 7 точность не определена (достоверность 12) [BCCE649C], AccurateRip вернул [1A61046C]Трек 8 точность не определена (достоверность 12) [D62614B6], AccurateRip вернул [BEFB883E]Трек 9 точность не определена (достоверность 12) [CD1D2E67], AccurateRip вернул [8F6BD297]

Ни один трек не прошёл проверки на точностьВ вашей базе может быть иной вариант штамповки диска

Конец отчёта
  
REM GENRE JazzREM DATE 2005REM DISCID 7E07A409REM COMMENT "ExactAudioCopy v0.99pb4"PERFORMER "The Oscar Peterson Trio + The Singers Unlimited"TITLE "In Tune"FILE "The Oscar Peterson Trio + The Singers Unlimited - In Tune.flac" WAVE TRACK 01 AUDIO TITLE "Sesame Street" PERFORMER "The Oscar Peterson Trio + The Singers Unlimited" INDEX 01 00:00:00 TRACK 02 AUDIO TITLE "It Never Entered My Mind" PERFORMER "The Oscar Peterson Trio + The Singers Unlimited" INDEX 00 02:53:49 INDEX 01 02:55:49 TRACK 03 AUDIO TITLE "Children's Game" PERFORMER "The Oscar Peterson Trio + The Singers Unlimited" INDEX 00 06:57:03 INDEX 01 06:59:03 TRACK 04 AUDIO TITLE "The Gentle Rain" PERFORMER "The Oscar Peterson Trio + The Singers Unlimited" INDEX 00 09:40:19 INDEX 01 09:42:17 TRACK 05 AUDIO TITLE "A Child Is Born" PERFORMER "The Oscar Peterson Trio + The Singers Unlimited" INDEX 00 13:04:31 INDEX 01 13:06:31 TRACK 06 AUDIO TITLE "The Shadow Of Your Smile" PERFORMER "The Oscar Peterson Trio + The Singers Unlimited" INDEX 00 16:48:45 INDEX 01 16:50:44 TRACK 07 AUDIO TITLE "Catherine" PERFORMER "The Oscar Peterson Trio + The Singers Unlimited" INDEX 00 21:21:29 INDEX 01 21:23:29 TRACK 08 AUDIO TITLE "Once Upon A Summertime" PERFORMER "The Oscar Peterson Trio + The Singers Unlimited" INDEX 00 24:25:21 INDEX 01 24:27:21 TRACK 09 AUDIO TITLE "Here's That Rainy Day" PERFORMER "The Oscar Peterson Trio + The Singers Unlimited" INDEX 00 27:54:44 INDEX 01 27:56:44


Трекер:  [ 23-Фев-2012 14:11 ]

  

Скачать .torrent

Размер .torrent файла 11 KB


Размер: 263 MB
Хэш (hash) релиза: 5a52dd80181712cc80998de94850aa12b8231884

Еще никто не оставлял запись к записи скачать торрент The Oscar Peterson Trio + The Singers Unlimited - In Tune . Будь первым!

!Обратная связь