Скачать через торрент музыку бесплатно без регистрации torrent

Если у вас наблюдаются проблемы со скриншотами, переходом по ссылками, скачиванием торрентов - проблемы в блокировщике рекламы AdBlock. #хорошегоДня!


Статистика раздачи
Размер:  256 MB   |    Зарегистрирован:  5 лет 7 месяцев   |    .torrent скачан:  44 раза   |   
Раздают:  1  
   
Загрузка...
 
Автор Сообщение

Umakiro

avatar Umakiro


Roland Kirk With Jack McDuff — Kirk's Work (1961)

Жанр: Post-Bop, Soul
Год издания диска: 2007
Издатель (лейбл): Prestige
Номер по каталогу: PRCD-30161
Аудиокодек: FLAC (*.flac)
Тип рипа: tracks+.cue
Битрейт аудио: lossless
Продолжительность: 33:19
Источник (релизер): What.cd
Наличие сканов в содержимом раздачи: да

Треклист:
01. Three For Dizzy (5:15)
02. Makin' Whoopee (5:09)
03. Funk Underneath (6:17)
04. Kirk's Work (3:57)
05. Doin' The Sixty-Eight (4:23)
06. Too Late Now (3:54)
07. Skater's Waltz (4:25)

Personnel:
Roland Kirk - tenor sax, manzello, strich, flute, siren
Jack McDuff - Hammond organ
Joe Benjamin - bass
Arthur Taylor - drums

Rec.: Van Gelder Studio, Englewood Cliffs, NJ, July 11, 1961.
  
Exact Audio Copy V1.0 beta 1 from 15. November 2010

EAC extraction logfile from 25. March 2011, 8:46

Roland Kirk with Jack McDuff / Kirk's Work

Used drive : PIONEER DVD-RW DVR-111L Adapter: 0 ID: 0

Read mode : SecureUtilize accurate stream : YesDefeat audio cache : YesMake use of C2 pointers : No

Read offset correction : 48Overread into Lead-In and Lead-Out : NoFill up missing offset samples with silence : YesDelete leading and trailing silent blocks : NoNull samples used in CRC calculations : YesUsed interface : Native Win32 interface for Win NT & 2000Gap handling : Appended to previous track

Used output format : User Defined EncoderSelected bitrate : 1024 kBit/sQuality : HighAdd ID3 tag : NoCommand line compressor : C:\Program Files\Exact Audio Copy\Flac\flac.exeAdditional command line options : -5 -V -T "ARTIST=%a" -T "TITLE=%t" -T "ALBUM=%g" -T "DATE=%y" -T "TRACKNUMBER=%n" -T "TOTALTRACKS=%x" -T "GENRE=%m" -T "ALBUMARTIST=%v" -T "ALBUM ARTIST=%v" -T "COMMENT=EAC Secure Mode, Test & Copy, AccurateRip, FLAC -5" %s

TOC of the extracted CD

Track | Start | Length | Start sector | End sector --------------------------------------------------------- 1 | 0:00.00 | 5:14.71 | 0 | 23620 2 | 5:14.71 | 5:09.23 | 23621 | 46818 3 | 10:24.19 | 6:17.15 | 46819 | 75108 4 | 16:41.34 | 3:56.67 | 75109 | 92875 5 | 20:38.26 | 4:22.43 | 92876 | 112568 6 | 25:00.69 | 3:54.00 | 112569 | 130118 7 | 28:54.69 | 4:24.41 | 130119 | 149959

Track 1

Filename E:\EAC\Roland Kirk With Jack McDuff - Kirk's Work (1961) {2007 Prestige RVG Remaster}\01 - Three For Dizzy.wav

Pre-gap length 0:00:02.00

Peak level 98.0 % Extraction speed 4.0 X Track quality 100.0 % Test CRC 4E3E447E Copy CRC 4E3E447E Accurately ripped (confidence 2) [DCA54069] Copy OK

Track 2

Filename E:\EAC\Roland Kirk With Jack McDuff - Kirk's Work (1961) {2007 Prestige RVG Remaster}\02 - Makin' Whoopee.wav

Pre-gap length 0:00:07.65

Peak level 97.9 % Extraction speed 4.5 X Track quality 100.0 % Test CRC D5FACFC6 Copy CRC D5FACFC6 Accurately ripped (confidence 2) [454024B5] Copy OK

Track 3

Filename E:\EAC\Roland Kirk With Jack McDuff - Kirk's Work (1961) {2007 Prestige RVG Remaster}\03 - Funk Underneath.wav

Pre-gap length 0:00:07.65

Peak level 97.9 % Extraction speed 4.6 X Track quality 99.9 % Test CRC 4057BAD5 Copy CRC 4057BAD5 Accurately ripped (confidence 2) [59EF1C42] Copy OK

Track 4

Filename E:\EAC\Roland Kirk With Jack McDuff - Kirk's Work (1961) {2007 Prestige RVG Remaster}\04 - Kirk's Work.wav

Pre-gap length 0:00:07.65

Peak level 97.9 % Extraction speed 5.1 X Track quality 100.0 % Test CRC 3E1A147A Copy CRC 3E1A147A Accurately ripped (confidence 2) [F1DC9E03] Copy OK

Track 5

Filename E:\EAC\Roland Kirk With Jack McDuff - Kirk's Work (1961) {2007 Prestige RVG Remaster}\05 - Doin' The Sixty-Eight.wav

Pre-gap length 0:00:07.65

Peak level 97.9 % Extraction speed 5.1 X Track quality 100.0 % Test CRC F8DD6E43 Copy CRC F8DD6E43 Accurately ripped (confidence 2) [339CA243] Copy OK

Track 6

Filename E:\EAC\Roland Kirk With Jack McDuff - Kirk's Work (1961) {2007 Prestige RVG Remaster}\06 - Too Late Now.wav

Pre-gap length 0:00:07.65

Peak level 97.9 % Extraction speed 5.5 X Track quality 100.0 % Test CRC 3747C75E Copy CRC 3747C75E Accurately ripped (confidence 2) [D7203C07] Copy OK

Track 7

Filename E:\EAC\Roland Kirk With Jack McDuff - Kirk's Work (1961) {2007 Prestige RVG Remaster}\07 - Skater's Waltz.wav

Pre-gap length 0:00:07.65

Peak level 97.9 % Extraction speed 5.9 X Track quality 100.0 % Test CRC F5027120 Copy CRC F5027120 Accurately ripped (confidence 2) [D94CFEB3] Copy OK

All tracks accurately ripped

No errors occurred

End of status report

==== Log checksum CF3C98988922EBA92D589E23E55B6B071A8ABDD7D23F0623B24BDC652DC31496 ====
  
REM GENRE JazzREM DATE 1961REM DISCID 3E07CF07REM COMMENT "ExactAudioCopy v1.0b1"PERFORMER "Roland Kirk with Jack McDuff"TITLE "Kirk's Work"FILE "01 - Three For Dizzy.wav" WAVE TRACK 01 AUDIO TITLE "Three For Dizzy" PERFORMER "Roland Kirk with Jack McDuff" INDEX 01 00:00:00 TRACK 02 AUDIO TITLE "Makin' Whoopee" PERFORMER "Roland Kirk with Jack McDuff" FLAGS DCP INDEX 00 05:07:06FILE "02 - Makin' Whoopee.wav" WAVE INDEX 01 00:00:00 TRACK 03 AUDIO TITLE "Funk Underneath" PERFORMER "Roland Kirk with Jack McDuff" FLAGS DCP INDEX 00 05:01:33FILE "03 - Funk Underneath.wav" WAVE INDEX 01 00:00:00 TRACK 04 AUDIO TITLE "Kirk's Work" PERFORMER "Roland Kirk with Jack McDuff" FLAGS DCP INDEX 00 06:09:25FILE "04 - Kirk's Work.wav" WAVE INDEX 01 00:00:00 TRACK 05 AUDIO TITLE "Doin' The Sixty-Eight" PERFORMER "Roland Kirk with Jack McDuff" FLAGS DCP INDEX 00 03:49:02FILE "05 - Doin' The Sixty-Eight.wav" WAVE INDEX 01 00:00:00 TRACK 06 AUDIO TITLE "Too Late Now" PERFORMER "Roland Kirk with Jack McDuff" FLAGS DCP INDEX 00 04:14:53FILE "06 - Too Late Now.wav" WAVE INDEX 01 00:00:00 TRACK 07 AUDIO TITLE "Skater's Waltz" PERFORMER "Roland Kirk with Jack McDuff" FLAGS DCP INDEX 00 03:46:10FILE "07 - Skater's Waltz.wav" WAVE INDEX 01 00:00:00
  
[CUETools log; Date: 01.11.2011 19:19:15; Version: 2.0.9][CTDB TOCID: 8yZohg5r6mnvl_peZeRKWSk9Tls-] disk not present in database.[AccurateRip ID: 0009a121-00390b4b-3e07cf07] found.Track [ CRC ] Status 01 [dca54069] (10/13) Accurately ripped 02 [454024b5] (10/13) Accurately ripped 03 [59ef1c42] (10/13) Accurately ripped 04 [f1dc9e03] (10/13) Accurately ripped 05 [339ca243] (10/13) Accurately ripped 06 [d7203c07] (10/13) Accurately ripped 07 [d94cfeb3] (09/12) Accurately ripped

Track Peak [ CRC32 ] [W/O NULL] [ LOG ] -- 98,0 [20D1CA02] [27E2334A] 01 98,0 [4E3E447E] [3889CC0F] CRC32 02 97,9 [D5FACFC6] [F8E11129] CRC32 03 97,9 [4057BAD5] [11448EE3] CRC32 04 97,9 [3E1A147A] [96793FB8] CRC32 05 97,9 [F8DD6E43] [2EC2272F] CRC32 06 97,9 [3747C75E] [8108BEF1] CRC32 07 97,9 [F5027120] [326245E0] CRC32


Трекер:  [ 23-Фев-2012 14:11 ]

  

Скачать .torrent

Размер .torrent файла 11 KB


Размер: 256 MB
Хэш (hash) релиза: e5343fc1711dfbed1d9532e264c120309f6c43f5

Еще никто не оставлял запись к записи скачать торрент . Будь первым!

!Обратная связь