Скачать через торрент музыку Art Blakey - Kyoto бесплатно без регистрации torrent

Если у вас наблюдаются проблемы со скриншотами, переходом по ссылками, скачиванием торрентов - проблемы в блокировщике рекламы AdBlock. #хорошегоДня!


Статистика раздачи
Размер:  199 MB   |    Зарегистрирован:  5 лет 7 месяцев   |    .torrent скачан:  31 раз   |   
Раздают:  1  
   
Загрузка...
 
Автор Сообщение

Umakiro

avatar Umakiro


Art Blakey – Kyoto (1964)

Жанр: Hard Bop
Год издания диска: 1990
Издатель (лейбл): OJC/Riverside
Номер по каталогу: OJCCD-145-2
Аудиокодек: FLAC (*.flac)
Тип рипа: tracks+.cue
Битрейт аудио: lossless
Продолжительность: 32:33
Rip by durmoll
Наличие сканов в содержимом раздачи: да

Треклист:
01. The High Priest (5:59)
02. Never Never Land (5:51)
03. Wellington's Blues (5:07)
04. Nihon Bash (8:32)
05. Kyoto (7:04)

Personnel:
Freddie Hubbard - tp
Curtis Fuller - tb
Wayne Shorter - ts
Cedar Walton - p
Reggie Workman - b
Art Blakey - d
Wellington Blakey - vo (3)

Rec.: New York, February 20, 1964.
  
Exact Audio Copy V1.0 beta 3 from 29. August 2011

EAC extraction logfile from 20. February 2012, 16:13

Art Blakey / Kyoto

Used drive : ASUS DRW-20B1LT Adapter: 6 ID: 1

Read mode : SecureUtilize accurate stream : YesDefeat audio cache : YesMake use of C2 pointers : No

Read offset correction : 6Overread into Lead-In and Lead-Out : NoFill up missing offset samples with silence : YesDelete leading and trailing silent blocks : NoNull samples used in CRC calculations : YesUsed interface : Native Win32 interface for Win NT & 2000Gap handling : Appended to previous track

Used output format : Internal WAV RoutinesSample format : 44.100 Hz; 16 Bit; Stereo

TOC of the extracted CD

Track | Start | Length | Start sector | End sector --------------------------------------------------------- 1 | 0:00.00 | 5:59.18 | 0 | 26942 2 | 5:59.18 | 5:50.65 | 26943 | 53257 3 | 11:50.08 | 5:07.05 | 53258 | 76287 4 | 16:57.13 | 8:32.05 | 76288 | 114692 5 | 25:29.18 | 7:04.17 | 114693 | 146509

Track 1

Filename C:\rip\01 - The High Priest.wav

Pre-gap length 0:00:02.00

Peak level 84.1 % Extraction speed 73.8 X Track quality 100.0 % Test CRC 2A889378 Copy CRC 2A889378 Track not present in AccurateRip database Copy OK

Track 2

Filename C:\rip\02 - Never Never Land.wav

Pre-gap length 0:00:02.50

Peak level 88.2 % Extraction speed 81.0 X Track quality 100.0 % Test CRC 6CD3BFE1 Copy CRC 6CD3BFE1 Track not present in AccurateRip database Copy OK

Track 3

Filename C:\rip\03 - Wellingotn's Blues.wav

Pre-gap length 0:00:02.41

Peak level 86.9 % Extraction speed 75.2 X Track quality 99.9 % Test CRC 74DEFCCA Copy CRC 74DEFCCA Track not present in AccurateRip database Copy OK

Track 4

Filename C:\rip\04 - Nihon Bash.wav

Pre-gap length 0:00:03.09

Peak level 97.2 % Extraction speed 75.8 X Track quality 100.0 % Test CRC 4D3473A7 Copy CRC 4D3473A7 Track not present in AccurateRip database Copy OK

Track 5

Filename C:\rip\05 - Kyoto.wav

Pre-gap length 0:00:02.36

Peak level 92.2 % Extraction speed 71.2 X Track quality 100.0 % Test CRC C2D78A76 Copy CRC C2D78A76 Track not present in AccurateRip database Copy OK

None of the tracks are present in the AccurateRip database

No errors occurred

End of status report

==== Log checksum 6696FCF44C7B1D40313E432D63F07734E351496476AE046D64E666F41CAB2A70 ====
  
REM DISCID 2B07A105REM COMMENT "ExactAudioCopy v1.0b3"PERFORMER "Art Blakey"TITLE "Kyoto"FILE "01 - The High Priest.wav" WAVE TRACK 01 AUDIO TITLE "The High Priest" PERFORMER "Art Blakey" INDEX 01 00:00:00 TRACK 02 AUDIO TITLE "Never Never Land" PERFORMER "Art Blakey" INDEX 00 05:56:43FILE "02 - Never Never Land.wav" WAVE INDEX 01 00:00:00 TRACK 03 AUDIO TITLE "Wellingotn's Blues" PERFORMER "Art Blakey" INDEX 00 05:48:24FILE "03 - Wellingotn's Blues.wav" WAVE INDEX 01 00:00:00 TRACK 04 AUDIO TITLE "Nihon Bash" PERFORMER "Art Blakey" INDEX 00 05:03:71FILE "04 - Nihon Bash.wav" WAVE INDEX 01 00:00:00 TRACK 05 AUDIO TITLE "Kyoto" PERFORMER "Art Blakey" INDEX 00 08:29:44FILE "05 - Kyoto.wav" WAVE INDEX 01 00:00:00


Трекер:  [ 23-Фев-2012 14:10 ]

  

Скачать .torrent

Размер .torrent файла 16 KB


Размер: 199 MB
Хэш (hash) релиза: 6504ffef5afaa739446ad7818e095d3569298a0e

Еще никто не оставлял запись к записи скачать торрент Art Blakey - Kyoto . Будь первым!

!Обратная связь