..."/> ...">

Скачать через торрент музыку Fest - Among Friends - 1998, FLAC бесплатно без регистрации torrent

Если у вас наблюдаются проблемы со скриншотами, переходом по ссылками, скачиванием торрентов - проблемы в блокировщике рекламы AdBlock. #хорошегоДня!


Статистика раздачи
Размер:  335 MB   |    Зарегистрирован:  5 лет 7 месяцев   |    .torrent скачан:  35 раз   |   
Раздают:  1  
   
Загрузка...
 
Автор Сообщение

Umakiro

avatar Umakiro


Fest - Among Friends - 1998

Жанр: Fusion, Smooth Jazz
Дата записи: Recorded at «AFS» Studio (Vinnytsya, Ukraine) in October 1998
Год издания: 1998
Издатель (лейбл): Kogan Khoma Production

Аудио кодек: FLAC (*.flac)
Тип рипа: (tracks + .cue)
Корректность рипа: EAC ripped, correct read offset, test and copy
Битрейт аудио: lossless
Наличие сканов в содержимом раздачи: full scans, png, 300 dpi
Продолжительность: 53:39
Источник (релизер): коллекция Л Рендера, мой рип

Трэклист:
Among Friends (I. Zakus) - 4'50"
Sweet Fingers (Y. Shepeta) - 6'44"
Funk Blues (I. Zakus) - 4'19"
Under Impression (I. Zakus) - 6'04"
A Bold Move (V. Ivanov) - 6'10"
S.W.O.S. (S. Ovsiannikov) - 5'34"
Bass Blues (I. Zakus) - 4'10"
Tell Me (S. Ovsiannikov) - 4'30"
Dedication (to the Memory of My Father) (I. Zakus) - 6'04"
It Could Be A Miracle (Y. Shepeta) - 5'21"

Состав:
Igor ZAKUS — bass
Yuri SНЕРЕТА - keyboards
Vitaly IVANOV - alto sax
Sergiy OVSIANNIKOV - guitar
Sergiy TABUNSCHIK - drums
At last... At long last «FEST» Group has had a CD out here in Ukraine.
In west-ukrainian dialect «FEST» means a company of young fellows.
And these fellows, by the way, happened to be the one of the best groups who play jazz in our country. Any kind of jazz... An easy-listening, accessible to general audience modern pop-jazz has become a kind of musical language of this CD. The album «Among Friends» features only author's original compositions written by members of «FEST» Group. «FEST» Group consists of musicians from the various regions of Ukraine, who are now living and working here in Kiev.
* Igor Zakus (bass) - the founder of «FEST», composer and an experienced musician (Chervonograd).
* Yuri Shepeta (keyboards and piano) - one more group leader, an author of numerous jazz projects, great soloist, composer and arranger (Vinnitsa) .
* Sergiy Ovsiannikov (guitar) - composer, who has his own CD to his credit and an experience of taking part in different jazz concerts and festivals (Kramatorsk) .
* Vitaiy Ivanov (sax) - a forward-looking and reliable musician and great partner (Kiev) .
* Sergiy Tabunschik (drums) - a musician who has great experience of working in different groups, playing different variety of music (Mikolaiv).
Well, «FEST» present you their own music . One shouldn't think that a kind of jazz called «easy-listening» is easy to write and play , and «FEST» was only trying to create an easy-going and pleasurable atmosphere. The atmosphere ofreal jazzmen and they will always find a place for anyone who wants to listen to this album .
  
REM GENRE Fast-FusionREM DATE 1998REM DISCID 910C930AREM COMMENT "ExactAudioCopy v0.95b4"PERFORMER "Fest"TITLE "Among Friends"FILE "01 - Among Friends.wav" WAVE TRACK 01 AUDIO TITLE "Among Friends" PERFORMER "Fest" INDEX 01 00:00:00 TRACK 02 AUDIO TITLE "Sweet Fingers" PERFORMER "Fest" INDEX 00 04:52:30FILE "02 - Sweet Fingers.wav" WAVE INDEX 01 00:00:00 TRACK 03 AUDIO TITLE "Funk Blues" PERFORMER "Fest" INDEX 00 05:48:39FILE "03 - Funk Blues.wav" WAVE INDEX 01 00:00:00 TRACK 04 AUDIO TITLE "Under Impression" PERFORMER "Fest" INDEX 00 04:21:41FILE "04 - Under Impression.wav" WAVE INDEX 01 00:00:00 TRACK 05 AUDIO TITLE "A Bold Movie" PERFORMER "Fest" INDEX 00 06:08:11FILE "05 - A Bold Movie.wav" WAVE INDEX 01 00:00:00 TRACK 06 AUDIO TITLE "S.W.O.S" PERFORMER "Fest" INDEX 00 06:13:30FILE "06 - S.W.O.S.wav" WAVE INDEX 01 00:00:00 TRACK 07 AUDIO TITLE "Bass Blues" PERFORMER "Fest" INDEX 00 05:36:73FILE "07 - Bass Blues.wav" WAVE INDEX 01 00:00:00 TRACK 08 AUDIO TITLE "Tell Me" PERFORMER "Fest" INDEX 00 04:13:49FILE "08 - Tell Me.wav" WAVE INDEX 01 00:00:00 TRACK 09 AUDIO TITLE "Dedication" PERFORMER "Fest" INDEX 00 04:33:40FILE "09 - Dedication.wav" WAVE INDEX 01 00:00:00 TRACK 10 AUDIO TITLE "It Could Be A Miracle" PERFORMER "Fest" INDEX 00 06:07:02FILE "10 - It Could Be A Miracle.wav" WAVE INDEX 01 00:00:00
  
EAC extraction logfile from 17. August 2007, 20:59 for CDFest / Among Friends

Used drive : Optiarc DVD RW AD-5170A Adapter: 1 ID: 0Read mode : Secure with NO C2, accurate stream, disable cacheRead offset correction : 48Overread into Lead-In and Lead-Out : No

Used output format : D:\tools\FLAC\flac.exe (User Defined Encoder) 128 kBit/s Additional command line options : -V -8 -T "artist=%a" -T "title=%t" -T "album=%g" -T "date=%y" -T "tracknumber=%n" -T "genre=%m" %s

Other options : Fill up missing offset samples with silence : Yes Delete leading and trailing silent blocks : No Native Win32 interface for Win NT & 2000

Track 1 Filename D:\0\Fest - Among Friends (1998) [FLAC] {Ukraine}\01 - Among Friends.wav

Pre-gap length 0:00:02.00

Peak level 98.0 % Track quality 100.0 % Test CRC DFF27DBF Copy CRC DFF27DBF Copy OK

Track 2 Filename D:\0\Fest - Among Friends (1998) [FLAC] {Ukraine}\02 - Sweet Fingers.wav

Pre-gap length 0:00:02.00

Peak level 98.3 % Track quality 100.0 % Test CRC 8CEC2976 Copy CRC 8CEC2976 Copy OK

Track 3 Filename D:\0\Fest - Among Friends (1998) [FLAC] {Ukraine}\03 - Funk Blues.wav

Pre-gap length 0:00:02.00

Peak level 98.0 % Track quality 100.0 % Test CRC 5F2565AD Copy CRC 5F2565AD Copy OK

Track 4 Filename D:\0\Fest - Among Friends (1998) [FLAC] {Ukraine}\04 - Under Impression.wav

Pre-gap length 0:00:02.00

Peak level 98.3 % Track quality 100.0 % Test CRC ED2B5A90 Copy CRC ED2B5A90 Copy OK

Track 5 Filename D:\0\Fest - Among Friends (1998) [FLAC] {Ukraine}\05 - A Bold Movie.wav

Pre-gap length 0:00:02.00

Peak level 97.9 % Track quality 100.0 % Test CRC DC15958F Copy CRC DC15958F Copy OK

Track 6 Filename D:\0\Fest - Among Friends (1998) [FLAC] {Ukraine}\06 - S.W.O.S.wav

Pre-gap length 0:00:02.00

Peak level 97.9 % Track quality 100.0 % Test CRC 4BC36278 Copy CRC 4BC36278 Copy OK

Track 7 Filename D:\0\Fest - Among Friends (1998) [FLAC] {Ukraine}\07 - Bass Blues.wav

Pre-gap length 0:00:02.00

Peak level 98.1 % Track quality 99.9 % Test CRC E49F4BB3 Copy CRC E49F4BB3 Copy OK

Track 8 Filename D:\0\Fest - Among Friends (1998) [FLAC] {Ukraine}\08 - Tell Me.wav

Pre-gap length 0:00:02.00

Peak level 98.1 % Track quality 100.0 % Test CRC EECAA616 Copy CRC EECAA616 Copy OK

Track 9 Filename D:\0\Fest - Among Friends (1998) [FLAC] {Ukraine}\09 - Dedication.wav

Pre-gap length 0:00:02.00

Peak level 99.1 % Track quality 99.9 % Test CRC 0F647B5C Copy CRC 0F647B5C Copy OK

Track 10 Filename D:\0\Fest - Among Friends (1998) [FLAC] {Ukraine}\10 - It Could Be A Miracle.wav

Pre-gap length 0:00:02.00

Peak level 98.2 % Track quality 100.0 % Test CRC 77CF0425 Copy CRC 77CF0425 Copy OK

No errors occured

End of status report
1957152868 51932204 01 - Among Friends.wav
996821050 61831772 02 - Sweet Fingers.wav
1759348007 46489676 03 - Funk Blues.wav
1728727448 65293916 04 - Under Impression.wav
3547053852 66220604 05 - A Bold Movie.wav
367192733 59794940 06 - S.W.O.S.wav
245076359 45097292 07 - Bass Blues.wav
3397496538 48604124 08 - Tell Me.wav
2569055161 65096348 09 - Dedication.wav
3311900013 57595820 10 - It Could Be A Miracle.wav

auCDtect: CD records authenticity detector, version 0.8.2
Copyright (c) 2004 Oleg Berngardt. All rights reserved.
Copyright (c) 2004 Alexander Djourik. All rights reserved.
------------------------------------------------------------
Processing file: [01 - Among Friends.wav]

------------------------------------------------------------
This track looks like CDDA with probability 100%

------------------------------------------------------------
Processing file: [02 - Sweet Fingers.wav]

------------------------------------------------------------
This track looks like CDDA with probability 100%

------------------------------------------------------------
Processing file: [03 - Funk Blues.wav]

------------------------------------------------------------
This track looks like CDDA with probability 100%

------------------------------------------------------------
Processing file: [04 - Under Impression.wav]

------------------------------------------------------------
This track looks like CDDA with probability 99%

------------------------------------------------------------
Processing file: [05 - A Bold Movie.wav]

------------------------------------------------------------
This track looks like CDDA with probability 99%

------------------------------------------------------------
Processing file: [06 - S.W.O.S.wav]

------------------------------------------------------------
This track looks like CDDA with probability 100%

------------------------------------------------------------
Processing file: [07 - Bass Blues.wav]

------------------------------------------------------------
This track looks like CDDA with probability 100%

------------------------------------------------------------
Processing file: [08 - Tell Me.wav]

------------------------------------------------------------
This track looks like CDDA with probability 100%

------------------------------------------------------------
Processing file: [09 - Dedication.wav]

------------------------------------------------------------
This track looks like CDDA with probability 100%

------------------------------------------------------------
Processing file: [10 - It Could Be A Miracle.wav]

------------------------------------------------------------
This track looks like CDDA with probability 100%

------------------------------------------------------------
Final Conclusion:
------------------------------------------------------------
These tracks looks like CDDA with probability 100%


Трекер:  [ 22-Фев-2012 15:18 ]

  

Скачать .torrent

Размер .torrent файла 14 KB


Размер: 335 MB
Хэш (hash) релиза: 4540d5c54bf1ed53fb46a3296bf530f67f68c9d5

Еще никто не оставлял запись к записи скачать торрент Fest - Among Friends - 1998, FLAC . Будь первым!

!Обратная связь