Скачать через торрент музыку Gloria Estefan - Into The Light бесплатно без регистрации torrent

Если у вас наблюдаются проблемы со скриншотами, переходом по ссылками, скачиванием торрентов - проблемы в блокировщике рекламы AdBlock. #хорошегоДня!


Статистика раздачи
Размер:  423 MB   |    Зарегистрирован:  5 лет 7 месяцев   |    .torrent скачан:  46 раз   |   
Раздают:  1  
   
Загрузка...
 
Автор Сообщение

Umakiro

avatar Umakiro


Gloria Estefan - Into The Light (World Tour)

Жанр: Latin, pop
Страна исполнителя: USA
Год издания: 1992
Страна - производитель диска: Italy
Издатель (лейбл): HQ
Номер по каталогу: hq09
Тип: Live, Bootleg

Аудио кодек: FLAC (*.flac)
Тип рипа: (tracks + .cue)
Битрейт аудио: lossless
Наличие сканов в содержимом раздачи: full scans, png, 300 dpi
Продолжительность: 62:04
Источник (релизер): Моя коллекция, мой рип

Трэклист:
1. Conga (Enгique E. Garcia) 3.45
2. Get on your feet (J. Defaria/J. Casas/C. Ostwald) 5.10
3. Coming out of the dark (G. Estefan/E. Estefan/J. Secada) 4.12
4. Rythm is gonna get you (G. EStefan/Enrique E. Garcia) 5.22
5. Нeге we are (G. Estefan) 4.30
6. Don't wanna lose you (G. Estefan) 5.52
7. Seal Our fate (G. Estefan) 4.41
8. What goes around (C. Ostwald/ J. Casas/J. Secada) 5.20
9. Nayib's Song (G. Estefan) 5.20
10. Remember me with love (G.Rstefan) 8.03
11. Sex in the 90'S (G. Estefan/J. Secada) 4.46
12. Live for loving you (G. EStefan/E. Estefan/D. Warren) 8.25

Состав:
Gloria Estefan and Miami Sound Machine

Ссылки:
http://www.answers.com/topic/gloria-estefan-into-the-light-world-tour#ixzz1TeRqNEWA
Captured during a two-night stand at a Dutch arena, this 100-minute concert special documents Gloria Estefan's lavish 1991 world tour, which underscored the Cuban-American singer's graduation from acclaim as a dance-floor diva to the ranks of female pop superstars. At its best, Into the Light World Tour displays the relentless energy, personal warmth, and crack musicianship that Estefan and her husband, producer, and principal collaborator, Emilio Estefan Jr., had evolved through her old band, the Miami Sound Machine, and taken uptown through her solo career. When the star and her band kick into high gear, percussion simmering and horns blazing in taut, deftly arranged choruses, the propulsive lure of salsa is hard to resist.

Technically, Estefan is a singer with a supple tone but modest range, hardly suggesting the caliber expected of a bona fide diva. Neither does her small, compact frame suggest a dancer's physique, despite the production's reliance on extended dance sequences. Yet she makes the most with what she has, harnessing formidable physical energy and transmitting considerable warmth to her audience. Her material, including both Miami Sound Machine hits and subsequent solo signatures, works best when staying closest to her roots, riding the giddy syncopations of uptempo Latin rhythms, or plying the lambent emotions of traditional ballads. Her exhortations to dance--"Get on Your Feet," "Conga," and "Rhythm Is Gonna Get You" being the inevitable faves--work handily with an ecstatic audience.

More grizzled viewers should be forewarned that this, like most recent concert films, isn't purely documentary--apart from backstage sequences that duly flatter the star, the live sound has been liberally sweetened during post-concert production.
  
REM GENRE PopREM DATE 1992REM DISCID A00E820CREM COMMENT "ExactAudioCopy v1.0b2"PERFORMER "Gloria Estefan"TITLE "Into The Light / World Tour"FILE "01 - Get On Your Feet.wav" WAVE TRACK 01 AUDIO TITLE "Get On Your Feet" PERFORMER "Gloria Estefan" PREGAP 00:00:32 INDEX 01 00:00:00FILE "02 - Oye Me Canto.wav" WAVE TRACK 02 AUDIO TITLE "Oye Me Canto" PERFORMER "Gloria Estefan" INDEX 01 00:00:00FILE "03 - What Goes Around.wav" WAVE TRACK 03 AUDIO TITLE "What Goes Around" PERFORMER "Gloria Estefan" INDEX 01 00:00:00FILE "04 - Remember Me With Love.wav" WAVE TRACK 04 AUDIO TITLE "Remember Me With Love" PERFORMER "Gloria Estefan" INDEX 01 00:00:00FILE "05 - Here We Are.wav" WAVE TRACK 05 AUDIO TITLE "Here We Are" PERFORMER "Gloria Estefan" INDEX 01 00:00:00 TRACK 06 AUDIO TITLE "Live For Loving You" PERFORMER "Gloria Estefan" INDEX 00 04:29:49FILE "06 - Live For Loving You.wav" WAVE INDEX 01 00:00:00FILE "07 - Nayib's Song.wav" WAVE TRACK 07 AUDIO TITLE "Nayib's Song" PERFORMER "Gloria Estefan" INDEX 01 00:00:00FILE "08 - Close My Eyes.wav" WAVE TRACK 08 AUDIO TITLE "Close My Eyes" PERFORMER "Gloria Estefan" INDEX 01 00:00:00FILE "09 - Seal Our Fate.wav" WAVE TRACK 09 AUDIO TITLE "Seal Our Fate" PERFORMER "Gloria Estefan" INDEX 01 00:00:00FILE "10 - Conga.wav" WAVE TRACK 10 AUDIO TITLE "Conga" PERFORMER "Gloria Estefan" INDEX 01 00:00:00FILE "11 - Rhythm Is Gonna Get You.wav" WAVE TRACK 11 AUDIO TITLE "Rhythm Is Gonna Get You" PERFORMER "Gloria Estefan" INDEX 01 00:00:00FILE "12 - Coming Out Of The Dark.wav" WAVE TRACK 12 AUDIO TITLE "Coming Out Of The Dark" PERFORMER "Gloria Estefan" INDEX 01 00:00:00
  
Exact Audio Copy V1.0 beta 2 from 29. April 2011

EAC extraction logfile from 19. June 2011, 19:08

Gloria Estefan / Into The Light / World Tour

Used drive : HL-DT-STDVD-RAM GH22NP20 Adapter: 0 ID: 0

Read mode : SecureUtilize accurate stream : YesDefeat audio cache : YesMake use of C2 pointers : No

Read offset correction : 102Overread into Lead-In and Lead-Out : NoFill up missing offset samples with silence : YesDelete leading and trailing silent blocks : NoNull samples used in CRC calculations : YesUsed interface : Native Win32 interface for Win NT & 2000Gap handling : Appended to previous track

Used output format : User Defined EncoderSelected bitrate : 1024 kBit/sQuality : HighAdd ID3 tag : NoCommand line compressor : C:\Program Files\Exact Audio Copy\Flac\flac.exeAdditional command line options : -8 -V -T "ARTIST=%artist%" -T "TITLE=%title%" -T "ALBUM=%albumtitle%" -T "DATE=%year%" -T "TRACKNUMBER=%tracknr%" -T "GENRE=%genre%" -T "PERFORMER=%albuminterpret%" -T "COMMENT=EAC V1.0 beta 2, Secure Mode, Test & Copy, Acc

TOC of the extracted CD

Track | Start | Length | Start sector | End sector --------------------------------------------------------- 1 | 0:00.32 | 3:43.63 | 32 | 16819 2 | 3:44.20 | 5:36.00 | 16820 | 42019 3 | 9:20.20 | 4:13.00 | 42020 | 60994 4 | 13:33.20 | 4:41.25 | 60995 | 82094 5 | 18:14.45 | 4:29.50 | 82095 | 102319 6 | 22:44.20 | 3:59.00 | 102320 | 120244 7 | 26:43.20 | 4:38.35 | 120245 | 141129 8 | 31:21.55 | 4:38.40 | 141130 | 162019 9 | 36:00.20 | 5:19.12 | 162020 | 185956 10 | 41:19.32 | 8:00.63 | 185957 | 222019 11 | 49:20.20 | 4:50.00 | 222020 | 243769 12 | 54:10.20 | 7:44.00 | 243770 | 278569

Track 1

Filename D:\music\Musicgate's rips\Gloria Estefan - Into The Light (World Tour) - 1992\01 - Get On Your Feet.wav

Pre-gap length 0:00:02.42

Peak level 87.5 % Extraction speed 1.5 X Track quality 100.0 % Test CRC 1A7BA399 Copy CRC 1A7BA399 Track not present in AccurateRip database Copy OK

Track 2

Filename D:\music\Musicgate's rips\Gloria Estefan - Into The Light (World Tour) - 1992\02 - Oye Me Canto.wav

Peak level 74.8 % Extraction speed 1.7 X Track quality 99.9 % Test CRC 1169A7DF Copy CRC 1169A7DF Track not present in AccurateRip database Copy OK

Track 3

Filename D:\music\Musicgate's rips\Gloria Estefan - Into The Light (World Tour) - 1992\03 - What Goes Around.wav

Peak level 70.4 % Extraction speed 1.9 X Track quality 100.0 % Test CRC A25E91F9 Copy CRC A25E91F9 Track not present in AccurateRip database Copy OK

Track 4

Filename D:\music\Musicgate's rips\Gloria Estefan - Into The Light (World Tour) - 1992\04 - Remember Me With Love.wav

Peak level 100.0 % Extraction speed 2.2 X Track quality 100.0 % Test CRC 10164916 Copy CRC 10164916 Track not present in AccurateRip database Copy OK

Track 5

Filename D:\music\Musicgate's rips\Gloria Estefan - Into The Light (World Tour) - 1992\05 - Here We Are.wav

Peak level 90.8 % Extraction speed 2.3 X Track quality 100.0 % Test CRC DA038351 Copy CRC DA038351 Track not present in AccurateRip database Copy OK

Track 6

Filename D:\music\Musicgate's rips\Gloria Estefan - Into The Light (World Tour) - 1992\06 - Live For Loving You.wav

Pre-gap length 0:00:00.01

Peak level 84.5 % Extraction speed 2.4 X Track quality 100.0 % Test CRC 8322C4BB Copy CRC 8322C4BB Track not present in AccurateRip database Copy OK

Track 7

Filename D:\music\Musicgate's rips\Gloria Estefan - Into The Light (World Tour) - 1992\07 - Nayib's Song.wav

Peak level 85.7 % Extraction speed 2.5 X Track quality 100.0 % Test CRC B5E41C24 Copy CRC B5E41C24 Track not present in AccurateRip database Copy OK

Track 8

Filename D:\music\Musicgate's rips\Gloria Estefan - Into The Light (World Tour) - 1992\08 - Close My Eyes.wav

Peak level 90.4 % Extraction speed 2.4 X Track quality 99.9 % Test CRC 0728257D Copy CRC 0728257D Track not present in AccurateRip database Copy OK

Track 9

Filename D:\music\Musicgate's rips\Gloria Estefan - Into The Light (World Tour) - 1992\09 - Seal Our Fate.wav

Peak level 79.6 % Extraction speed 2.8 X Track quality 100.0 % Test CRC 971E2351 Copy CRC 971E2351 Track not present in AccurateRip database Copy OK

Track 10

Filename D:\music\Musicgate's rips\Gloria Estefan - Into The Light (World Tour) - 1992\10 - Conga.wav

Peak level 78.1 % Extraction speed 3.1 X Track quality 100.0 % Test CRC 4E80283C Copy CRC 4E80283C Track not present in AccurateRip database Copy OK

Track 11

Filename D:\music\Musicgate's rips\Gloria Estefan - Into The Light (World Tour) - 1992\11 - Rhythm Is Gonna Get You.wav

Peak level 88.2 % Extraction speed 3.1 X Track quality 100.0 % Test CRC A470B0D6 Copy CRC A470B0D6 Track not present in AccurateRip database Copy OK

Track 12

Filename D:\music\Musicgate's rips\Gloria Estefan - Into The Light (World Tour) - 1992\12 - Coming Out Of The Dark.wav

Peak level 85.0 % Extraction speed 3.4 X Track quality 100.0 % Test CRC 146B4AD8 Copy CRC 146B4AD8 Track not present in AccurateRip database Copy OK

None of the tracks are present in the AccurateRip database

No errors occurred

End of status report

==== Log checksum 3F07855E1D085FB742FB721A2F2932376328BBDECC924D505AA81D7892B66F88 ====


Трекер:  [ 22-Фев-2012 15:14 ]

  

Скачать .torrent

Размер .torrent файла 18 KB


Размер: 423 MB
Хэш (hash) релиза: 55b36914cecb5e5f4793668d1fe691e0359fc128

Еще никто не оставлял запись к записи скачать торрент Gloria Estefan - Into The Light . Будь первым!

!Обратная связь