Скачать через торрент музыку Eje Thelin - Graz 1969 - 2005, FLAC бесплатно без регистрации torrent

Если у вас наблюдаются проблемы со скриншотами, переходом по ссылками, скачиванием торрентов - проблемы в блокировщике рекламы AdBlock. #хорошегоДня!


Статистика раздачи
Размер:  178 MB   |    Зарегистрирован:  5 лет 7 месяцев   |    .torrent скачан:  29 раз   |   
Раздают:  1  
   
Загрузка...
 
Автор Сообщение

Umakiro

avatar Umakiro


Eje Thelin - Graz 1969 - 2005

Жанр: Post-Bop, Trombone
Страна исполнителя: Sweden
Дата записи: ORF-studio, Graz St Peter; Austria, January 15, 1969.
Год издания оригинала: previosly unissued, 2005
Страна - производитель диска: Sweden
Издатель (лейбл): ® & © Dragon Records
Номер по каталогу: DRCD 377

Аудио кодек: FLAC (*.flac)
Тип рипа: (tracks + .cue)
Битрейт аудио: lossless
Наличие сканов в содержимом раздачи: full scans, png, 300 dpi
Продолжительность: 44:59
Источник (релизер): коллекция Л Рендера, мой рип

Трэклист:
1. SIXTY-NINE I (Eje Thelin) 4'58
2. THE FOOL ON THE HILL (Lennon, McCartney) 4'36
3. ACK VARMELAND DU SKONA {Trad, arr Eje Thelin) 5'25
4. LAPP-NILS POLSKA (Trad, arr Palle Danielsson) 0'56
5. SPANISH CASTLES (Eje Thelin) 11'59
6. EASTERN FLAVOUR (Eje Thelin) 2'46
7. TODAY (Eye Thelin) 5'49
8. TOMORROW (Eje Thelin) 4'16
9. SIXTY-NINE II (Eje Thelin) 3'52

Состав:
EJE THELIN - trombone
PALLE DANIELSSON - bass
JOHN PREININGER - percussion
Swedish trombonist Eje Thelin had impressive technique and by 1969 had developed a style very much open to the innovations of the American avant-garde. This previously unreleased trio date finds Thelin sounding quite lyrical and melodic even at his freest. Bassist Palle Danielsson is practically a co-equal with the trombonist, both in solo space and his contributions to the ensembles. Percussionist John Preininger is stimulating in support during the set of originals, two Swedish folk songs ("Ack Varmeland Du Skna" is actually "Dear Old Stockholm") and an abstract version of the Beatles' "Fool on the Hill." Since Eje Thelin is a somewhat forgotten name today, particularly among American jazz listeners, the release of this CD is an important reminder of his talent. ~ Scott Yanow
  
REM GENRE JazzREM DATE 2005REM DISCID 7A0A8C09REM COMMENT "ExactAudioCopy v1.0b2"PERFORMER "Eje Thelin"TITLE "Graz 1969"FILE "01 - Sixty-Nine I.wav" WAVE TRACK 01 AUDIO TITLE "Sixty-Nine I" PERFORMER "Eje Thelin" ISRC SEPUC0478010 INDEX 01 00:00:00FILE "02 - The Fool On The Hill.wav" WAVE TRACK 02 AUDIO TITLE "The Fool On The Hill" PERFORMER "Eje Thelin" ISRC SEPUC0478020 INDEX 01 00:00:00 TRACK 03 AUDIO TITLE "Ack Varmeland Du Skona" PERFORMER "Eje Thelin" ISRC SEPUC0478030 INDEX 00 04:36:56FILE "03 - Ack Varmeland Du Skona.wav" WAVE INDEX 01 00:00:00 TRACK 04 AUDIO TITLE "Lapp-Nils Polska" PERFORMER "Eje Thelin" ISRC SEPUC0478040 INDEX 00 05:25:17FILE "04 - Lapp-Nils Polska.wav" WAVE INDEX 01 00:00:00 TRACK 05 AUDIO TITLE "Spanish Castles" PERFORMER "Eje Thelin" ISRC SEPUC0478050 INDEX 00 00:57:13FILE "05 - Spanish Castles.wav" WAVE INDEX 01 00:00:00FILE "06 - Eastern Flavour.wav" WAVE TRACK 06 AUDIO TITLE "Eastern Flavour" PERFORMER "Eje Thelin" ISRC SEPUC0478060 INDEX 01 00:00:00FILE "07 - Today.wav" WAVE TRACK 07 AUDIO TITLE "Today" PERFORMER "Eje Thelin" ISRC SEPUC0478070 INDEX 01 00:00:00FILE "08 - Tomorrow.wav" WAVE TRACK 08 AUDIO TITLE "Tomorrow" PERFORMER "Eje Thelin" ISRC SEPUC0478080 INDEX 01 00:00:00FILE "09 - Sixty-Nine II.wav" WAVE TRACK 09 AUDIO TITLE "Sixty-Nine II" PERFORMER "Eje Thelin" ISRC SEPUC0478090 INDEX 01 00:00:00
  
Exact Audio Copy V1.0 beta 2 from 29. April 2011

EAC extraction logfile from 23. August 2011, 19:29

Eje Thelin / Graz 1969

Used drive : HL-DT-STDVDRAM GSA-T50N Adapter: 1 ID: 0

Read mode : SecureUtilize accurate stream : YesDefeat audio cache : YesMake use of C2 pointers : No

Read offset correction : 667Overread into Lead-In and Lead-Out : NoFill up missing offset samples with silence : YesDelete leading and trailing silent blocks : NoNull samples used in CRC calculations : YesUsed interface : Native Win32 interface for Win NT & 2000Gap handling : Appended to previous track

Used output format : User Defined EncoderSelected bitrate : 1024 kBit/sQuality : HighAdd ID3 tag : NoCommand line compressor : C:\Program Files\Exact Audio Copy\Flac\flac.exeAdditional command line options : -8 -V -T "ARTIST=%artist%" -T "TITLE=%title%" -T "ALBUM=%albumtitle%" -T "DATE=%year%" -T "TRACKNUMBER=%tracknr%" -T "GENRE=%genre%" -T "PERFORMER=%albuminterpret%" -T "COMMENT=EAC V1.0 beta 2, Secure Mode, Test & Copy, Acc

TOC of the extracted CD

Track | Start | Length | Start sector | End sector --------------------------------------------------------- 1 | 0:00.00 | 5:03.14 | 0 | 22738 2 | 5:03.14 | 4:40.52 | 22739 | 43790 3 | 9:43.66 | 5:27.26 | 43791 | 68341 4 | 15:11.17 | 0:58.15 | 68342 | 72706 5 | 16:09.32 | 12:01.47 | 72707 | 126828 6 | 28:11.04 | 2:48.08 | 126829 | 139436 7 | 30:59.12 | 5:52.22 | 139437 | 165858 8 | 36:51.34 | 4:16.38 | 165859 | 185096 9 | 41:07.72 | 3:52.46 | 185097 | 202542

Track 1

Filename C:\music\Musicgate's rips\Eje Thelin - Graz 1969 - 2005\01 - Sixty-Nine I.wav

Pre-gap length 0:00:02.00

Peak level 90.1 % Extraction speed 2.5 X Track quality 100.0 % Test CRC A99D1401 Copy CRC A99D1401 Track not present in AccurateRip database Copy OK

Track 2

Filename C:\music\Musicgate's rips\Eje Thelin - Graz 1969 - 2005\02 - The Fool On The Hill.wav

Peak level 75.5 % Extraction speed 2.8 X Track quality 100.0 % Test CRC 09BE4F0B Copy CRC 09BE4F0B Track not present in AccurateRip database Copy OK

Track 3

Filename C:\music\Musicgate's rips\Eje Thelin - Graz 1969 - 2005\03 - Ack Varmeland Du Skona.wav

Pre-gap length 0:00:03.94

Peak level 81.5 % Extraction speed 2.8 X Track quality 99.9 % Test CRC 35A1FBE8 Copy CRC 35A1FBE8 Track not present in AccurateRip database Copy OK

Track 4

Filename C:\music\Musicgate's rips\Eje Thelin - Graz 1969 - 2005\04 - Lapp-Nils Polska.wav

Pre-gap length 0:00:02.12

Peak level 51.8 % Extraction speed 2.2 X Track quality 100.0 % Test CRC DEFFDFC7 Copy CRC DEFFDFC7 Track not present in AccurateRip database Copy OK

Track 5

Filename C:\music\Musicgate's rips\Eje Thelin - Graz 1969 - 2005\05 - Spanish Castles.wav

Pre-gap length 0:00:01.02

Peak level 88.5 % Extraction speed 3.7 X Track quality 100.0 % Test CRC C429ABAC Copy CRC C429ABAC Track not present in AccurateRip database Copy OK

Track 6

Filename C:\music\Musicgate's rips\Eje Thelin - Graz 1969 - 2005\06 - Eastern Flavour.wav

Peak level 80.8 % Extraction speed 3.5 X Track quality 100.0 % Test CRC 12721D09 Copy CRC 12721D09 Track not present in AccurateRip database Copy OK

Track 7

Filename C:\music\Musicgate's rips\Eje Thelin - Graz 1969 - 2005\07 - Today.wav

Peak level 67.6 % Extraction speed 4.0 X Track quality 100.0 % Test CRC AECA8AD7 Copy CRC AECA8AD7 Track not present in AccurateRip database Copy OK

Track 8

Filename C:\music\Musicgate's rips\Eje Thelin - Graz 1969 - 2005\08 - Tomorrow.wav

Peak level 98.8 % Extraction speed 4.0 X Track quality 100.0 % Test CRC 201FEA49 Copy CRC 201FEA49 Track not present in AccurateRip database Copy OK

Track 9

Filename C:\music\Musicgate's rips\Eje Thelin - Graz 1969 - 2005\09 - Sixty-Nine II.wav

Peak level 78.3 % Extraction speed 4.2 X Track quality 100.0 % Test CRC 11B506D1 Copy CRC 11B506D1 Track not present in AccurateRip database Copy OK

None of the tracks are present in the AccurateRip database

No errors occurred

End of status report

==== Log checksum 9B3A24BD1498D5A72A1CD9C3431A919E8414585585004C8286186423924749E4 ====


Трекер:  [ 22-Фев-2012 15:13 ]

  

Скачать .torrent

Размер .torrent файла 15 KB


Размер: 178 MB
Хэш (hash) релиза: 26ba66539b6f7323c0d60f5b079f324dd0fc00d1

Еще никто не оставлял запись к записи скачать торрент Eje Thelin - Graz 1969 - 2005, FLAC . Будь первым!

!Обратная связь