Скачать через торрент музыку Bill Barron - West Side Story Bossa Nova - 1963 бесплатно без регистрации torrent

Если у вас наблюдаются проблемы со скриншотами, переходом по ссылками, скачиванием торрентов - проблемы в блокировщике рекламы AdBlock. #хорошегоДня!


Статистика раздачи
Размер:  239 MB   |    Зарегистрирован:  5 лет 7 месяцев   |    .torrent скачан:  44 раза   |   
Раздают:  1  
   
Загрузка...
 
Автор Сообщение

Umakiro

avatar Umakiro


Bill Barron - West Side Story Bossa Nova - 1963 (2002)

Жанр: Hard Bop, Post-Bop
Страна исполнителя: USA
Дата записи: New York, 1963
Год издания оригинала: 1963 - Dauntless LP, DS 6312
Год переиздания: 2002
Страна - производитель диска: USA
Издатель (лейбл): Dauntless
Номер по каталогу: DC 6004
Тип: Studio

Аудио кодек: FLAC (*.flac)
Тип рипа: (tracks + .cue)
Битрейт аудио: lossless
Наличие сканов в содержимом раздачи: full scans, png, 300 dpi
Продолжительность: 35:04
Источник (релизер): коллекция Л Рендера, мой рип

Трэклист:
1. Something's Coming - 3:15
2. One Hand, One Heart - 3:29
3. Gee, Officer Krupke - 3:57
4. Cool - 3:55
5. Maria - 2:19
6. Tonight - 3:21
7. America - 3:32
8. I Feel Pretty- 3:42
9. Jet Song - 3:18
10. Somewhere - 3:53

All music composed by Leonard Bernstein

Состав:
Bill Barron, Arranger, Leader, Sax (Soprano), Sax (Tenor)
Willie Thomas, trumpet
Kenny Burrell, guitar
Steve Kuhn, piano
Henry Grimes, bass
Charlie Persip, drums
Jose Soares, percussion
Kenny Barron, piano on #1

About performer:


About albume:
  
REM GENRE jazzREM DATE 1963REM DISCID 8E08380AREM COMMENT "ExactAudioCopy v1.0b2"PERFORMER "Bill Baron"TITLE "West Side Story Bossa Nova"FILE "01 - Something's Coming.wav" WAVE TRACK 01 AUDIO TITLE "Something's Coming" PERFORMER "Bill Baron" INDEX 01 00:00:00 TRACK 02 AUDIO TITLE "One Hand, One Heart" PERFORMER "Bill Baron" INDEX 00 03:13:49FILE "02 - One Hand, One Heart.wav" WAVE INDEX 01 00:00:00 TRACK 03 AUDIO TITLE "Gee, Officer Krupke" PERFORMER "Bill Baron" INDEX 00 03:29:67FILE "03 - Gee, Officer Krupke.wav" WAVE INDEX 01 00:00:00 TRACK 04 AUDIO TITLE "Cool" PERFORMER "Bill Baron" INDEX 00 03:58:08FILE "04 - Cool.wav" WAVE INDEX 01 00:00:00 TRACK 05 AUDIO TITLE "Maria" PERFORMER "Bill Baron" INDEX 00 03:55:58FILE "05 - Maria.wav" WAVE INDEX 01 00:00:00 TRACK 06 AUDIO TITLE "Tonight" PERFORMER "Bill Baron" INDEX 00 02:20:22FILE "06 - Tonight.wav" WAVE INDEX 01 00:00:00 TRACK 07 AUDIO TITLE "America" PERFORMER "Bill Baron" INDEX 00 03:21:26FILE "07 - America.wav" WAVE INDEX 01 00:00:00 TRACK 08 AUDIO TITLE "I Feel Pretty" PERFORMER "Bill Baron" INDEX 00 03:33:15FILE "08 - I Feel Pretty.wav" WAVE INDEX 01 00:00:00 TRACK 09 AUDIO TITLE "Jet Song" PERFORMER "Bill Baron" INDEX 00 03:42:54FILE "09 - Jet Song.wav" WAVE INDEX 01 00:00:00 TRACK 10 AUDIO TITLE "Somewhere" PERFORMER "Bill Baron" INDEX 00 03:18:74FILE "10 - Somewhere.wav" WAVE INDEX 01 00:00:00
  
Exact Audio Copy V1.0 beta 2 from 29. April 2011

EAC extraction logfile from 19. October 2011, 10:05

Bill Baron / West Side Story Bossa Nova

Used drive : HL-DT-STDVD-RAM GH22NP20 Adapter: 0 ID: 0

Read mode : SecureUtilize accurate stream : YesDefeat audio cache : YesMake use of C2 pointers : No

Read offset correction : 102Overread into Lead-In and Lead-Out : NoFill up missing offset samples with silence : YesDelete leading and trailing silent blocks : NoNull samples used in CRC calculations : YesUsed interface : Native Win32 interface for Win NT & 2000Gap handling : Appended to previous track

Used output format : User Defined EncoderSelected bitrate : 1024 kBit/sQuality : HighAdd ID3 tag : NoCommand line compressor : C:\Program Files\Exact Audio Copy\Flac\flac.exeAdditional command line options : -8 -V -T "ARTIST=%artist%" -T "TITLE=%title%" -T "ALBUM=%albumtitle%" -T "DATE=%year%" -T "TRACKNUMBER=%tracknr%" -T "GENRE=%genre%" -T "PERFORMER=%albuminterpret%" -T "COMMENT=EAC V1.0 beta 2, Secure Mode, Test & Copy, Acc

TOC of the extracted CD

Track | Start | Length | Start sector | End sector --------------------------------------------------------- 1 | 0:00.00 | 3:15.39 | 0 | 14663 2 | 3:15.39 | 3:31.56 | 14664 | 30544 3 | 6:47.20 | 3:59.73 | 30545 | 48542 4 | 10:47.18 | 3:57.48 | 48543 | 66365 5 | 14:44.66 | 2:22.12 | 66366 | 77027 6 | 17:07.03 | 3:23.16 | 77028 | 92268 7 | 20:30.19 | 3:35.05 | 92269 | 108398 8 | 24:05.24 | 3:44.44 | 108399 | 125242 9 | 27:49.68 | 3:20.64 | 125243 | 140306 10 | 31:10.57 | 3:53.63 | 140307 | 157844

Track 1

Filename D:\music\Musicgate's rips\Bill Baron - West Side Story Bossa Nova - 1963 (2002)\01 - Something's Coming.wav

Pre-gap length 0:00:02.00

Peak level 99.9 % Extraction speed 1.3 X Track quality 99.9 % Test CRC FEEA9CDE Copy CRC FEEA9CDE Track not present in AccurateRip database Copy OK

Track 2

Filename D:\music\Musicgate's rips\Bill Baron - West Side Story Bossa Nova - 1963 (2002)\02 - One Hand, One Heart.wav

Pre-gap length 0:00:01.86

Peak level 95.9 % Extraction speed 1.6 X Track quality 100.0 % Test CRC 80B46CEB Copy CRC 80B46CEB Track not present in AccurateRip database Copy OK

Track 3

Filename D:\music\Musicgate's rips\Bill Baron - West Side Story Bossa Nova - 1963 (2002)\03 - Gee, Officer Krupke.wav

Pre-gap length 0:00:01.85

Peak level 99.9 % Extraction speed 1.8 X Track quality 100.0 % Test CRC C526489E Copy CRC C526489E Track not present in AccurateRip database Copy OK

Track 4

Filename D:\music\Musicgate's rips\Bill Baron - West Side Story Bossa Nova - 1963 (2002)\04 - Cool.wav

Pre-gap length 0:00:01.86

Peak level 99.9 % Extraction speed 2.0 X Track quality 100.0 % Test CRC 6DCFF6E6 Copy CRC 6DCFF6E6 Track not present in AccurateRip database Copy OK

Track 5

Filename D:\music\Musicgate's rips\Bill Baron - West Side Story Bossa Nova - 1963 (2002)\05 - Maria.wav

Pre-gap length 0:00:01.86

Peak level 87.2 % Extraction speed 1.9 X Track quality 100.0 % Test CRC DD75626A Copy CRC DD75626A Track not present in AccurateRip database Copy OK

Track 6

Filename D:\music\Musicgate's rips\Bill Baron - West Side Story Bossa Nova - 1963 (2002)\06 - Tonight.wav

Pre-gap length 0:00:01.86

Peak level 99.9 % Extraction speed 2.1 X Track quality 100.0 % Test CRC 14E5352D Copy CRC 14E5352D Track not present in AccurateRip database Copy OK

Track 7

Filename D:\music\Musicgate's rips\Bill Baron - West Side Story Bossa Nova - 1963 (2002)\07 - America.wav

Pre-gap length 0:00:01.86

Peak level 99.9 % Extraction speed 2.3 X Track quality 100.0 % Test CRC F7EF732F Copy CRC F7EF732F Track not present in AccurateRip database Copy OK

Track 8

Filename D:\music\Musicgate's rips\Bill Baron - West Side Story Bossa Nova - 1963 (2002)\08 - I Feel Pretty.wav

Pre-gap length 0:00:01.86

Peak level 99.9 % Extraction speed 2.4 X Track quality 100.0 % Test CRC 69C88894 Copy CRC 69C88894 Track not present in AccurateRip database Copy OK

Track 9

Filename D:\music\Musicgate's rips\Bill Baron - West Side Story Bossa Nova - 1963 (2002)\09 - Jet Song.wav

Pre-gap length 0:00:01.86

Peak level 99.9 % Extraction speed 2.1 X Track quality 99.9 % Test CRC 4B21B954 Copy CRC 4B21B954 Track not present in AccurateRip database Copy OK

Track 10

Filename D:\music\Musicgate's rips\Bill Baron - West Side Story Bossa Nova - 1963 (2002)\10 - Somewhere.wav

Pre-gap length 0:00:01.86

Peak level 99.9 % Extraction speed 2.6 X Track quality 100.0 % Test CRC BB705C48 Copy CRC BB705C48 Track not present in AccurateRip database Copy OK

None of the tracks are present in the AccurateRip database

No errors occurred

End of status report

==== Log checksum E31FEC4B82463A23787EF5FA31D6FC042D3276A141D431BBBFF3BCB1B0CE67C6 ====


Трекер:  [ 22-Фев-2012 15:12 ]

  

Скачать .torrent

Размер .torrent файла 20 KB


Размер: 239 MB
Хэш (hash) релиза: 563f242428638669749d360f092c283eb940d8e7

Еще никто не оставлял запись к записи скачать торрент Bill Barron - West Side Story Bossa Nova - 1963 . Будь первым!

!Обратная связь