Скачать через торрент музыку Squirrel Nut Zippers - Bedlam Ballroom бесплатно без регистрации torrent

Если у вас наблюдаются проблемы со скриншотами, переходом по ссылками, скачиванием торрентов - проблемы в блокировщике рекламы AdBlock. #хорошегоДня!


Статистика раздачи
Размер:  326 MB   |    Зарегистрирован:  5 лет 8 месяцев   |    .torrent скачан:  33 раза   |   
Раздают:  1  
   
Загрузка...
 
Автор Сообщение

Umakiro

avatar Umakiro


Squirrel Nut Zippers - Bedlam Ballroom

Жанр: Swing, Neo-swing
Год выпуска диска: 2000
Производитель диска: USA
Продолжительность: около 53 min
Аудио кодек: FLAC
Тип рипа: image+.cue
Битрейт аудио: lossless

Трэклист:

1. Bedbugs 3:12
2. Baby Wants A Diamond Ring 3:25
3. Do What? 2:42
4. Bent Out Of Shape 2:47
5. Stop Drop and Roll 2:58
6. Hush 4:12
7. It All Depends 3:47
8. Bedlam Ballroom 2:15
9. Just This Side Of Blue 3:08
10. Don't Fix It 3:33
11. Missing Link 3:21
12. Bedlam Reprise 0:21
13. Do It This Way 2:31

Источник: пиратка, коврики - из сети

Доп. информация:
Одни из родоначальников, и одни из ярчайших (если не самых ярких) исполнителей музыки в стиле neo-swing. Обладающие своей, легко узнаваемой харизмой, и просто зажигательной манерой исполнения. А если еще учесть, что в наличии и незаурядный музыкальный вкус, и юмор в текстах… на этом моё красноречие иссякло. Это их третий альбом. Всем поклонникам жанра – MUST HAVE!
В папке "CD-Extra Files" находится мультимедиа информация: два видеоклипа - Ghost Of Steven Foster и Missing Link, фотогалерея, краткая биография группы, данные для входа на сайт группы.
(GSpot):

File Type: QuickTime (.MOV)
Size: 51.4 MB (52,699 KB / 53,964,435 bytes)
Lenght: 3:39.066
1970 Kbps, 15.00 Fps
Video Codec: SVQ1, Sorenson Video 1
Mime Type: video/quicktime
Recommended Display Size: 320 x 240, 1.333 (4:3)
Audio Codec: ima4: IMA 4:1(16bit->4bit, 22050Hz

File Type: QuickTime (.MOV)
Size: 51.4 MB (52,699 KB / 53,964,435 bytes)
Lenght: 3:22.866
1970 Kbps, 15.00 Fps
Video Codec: SVQ1, Sorenson Video 1
Mime Type: video/quicktime
Recommended Display Size: 320 x 240, 1.333 (4:3)
Audio Codec: ima4: IMA 4:1(16bit->4bit, 22050Hz
Exact Audio Copy V0.99 prebeta 3 from 28. July 2007

EAC extraction logfile from 4. December 2009, 22:20

Squirrel Nut Zippers / Bedlam Ballroom

Used drive : _NEC DVD_RW ND-3550A Adapter: 1 ID: 1

Read mode : Secure
Utilize accurate stream : Yes
Defeat audio cache : Yes
Make use of C2 pointers : No

Read offset correction : 48
Overread into Lead-In and Lead-Out : No
Fill up missing offset samples with silence : Yes
Delete leading and trailing silent blocks : No
Null samples used in CRC calculations : Yes
Used interface : Installed external ASPI interface

Used output format : User Defined Encoder
Selected bitrate : 768 kBit/s
Quality : High
Add ID3 tag : No
Command line compressor : d:\Program Files\Exact Audio Copy\FLAC\FLAC.EXE
Additional command line options : -6 -V -T "ARTIST=%a" -T "TITLE=%t" -T "ALBUM=%g" -T "DATE=%y" -T "TRACKNUMBER=%n" -T "GENRE=%m" -T "COMMENT=%e" %s -o %d

TOC of the extracted CD

Track | Start | Length | Start sector | End sector
---------------------------------------------------------
1 | 0:00.00 | 3:12.27 | 0 | 14426
2 | 3:12.27 | 3:25.15 | 14427 | 29816
3 | 6:37.42 | 2:42.18 | 29817 | 41984
4 | 9:19.60 | 2:47.06 | 41985 | 54515
5 | 12:06.66 | 2:58.44 | 54516 | 67909
6 | 15:05.35 | 4:12.66 | 67910 | 86875
7 | 19:18.26 | 3:47.11 | 86876 | 103911
8 | 23:05.37 | 2:15.46 | 103912 | 114082
9 | 25:21.08 | 3:08.41 | 114083 | 128223
10 | 28:29.49 | 3:33.37 | 128224 | 144235
11 | 32:03.11 | 3:21.33 | 144236 | 159343
12 | 35:24.44 | 0:21.71 | 159344 | 160989
13 | 35:46.40 | 2:31.52 | 160990 | 172366
14 | 40:50.17 | 11:47.09 | 183767 | 236800

Range status and errors

Selected range

Filename G:\DOWNLOADS\AUDIO\2000 SNZ - Bedlam Ballroom\Squirrel Nut Zippers - Bedlam Ballroom.wav

Peak level 100.0 %
Range quality 99.9 %
Copy CRC 41D5812B
Copy OK

No errors occurred

AccurateRip summary

Track 1 not present in database
Track 2 not present in database
Track 3 not present in database
Track 4 not present in database
Track 5 not present in database
Track 6 not present in database
Track 7 not present in database
Track 8 not present in database
Track 9 not present in database
Track 10 not present in database
Track 11 not present in database
Track 12 not present in database
Track 13 not present in database

None of the tracks are present in the AccurateRip database

End of status report


Трекер:  [ 22-Фев-2012 15:09 ]

  

Скачать .torrent

Размер .torrent файла 17 KB


Размер: 326 MB
Хэш (hash) релиза: 81d4c75baf206f2165a146d8b92a6b7247362a5d

Еще никто не оставлял запись к записи скачать торрент Squirrel Nut Zippers - Bedlam Ballroom . Будь первым!

!Обратная связь