Скачать через торрент музыку Irvin Mayfield - A Love Letter to New Orleans - 2011, FLAC бесплатно без регистрации torrent

Если у вас наблюдаются проблемы со скриншотами, переходом по ссылками, скачиванием торрентов - проблемы в блокировщике рекламы AdBlock. #хорошегоДня!


Статистика раздачи
Размер:  390 MB   |    Зарегистрирован:  5 лет 7 месяцев   |    .torrent скачан:  43 раза   |   
Раздают:  1  
   
Загрузка...
 
Автор Сообщение

Umakiro

avatar Umakiro



Irvin Mayfield - A Love Letter to New Orleans

Жанр: Post-bop, New Orleans Jazz, Trumpet
Год издания диска: 2011
Издатель (лейбл): Basin Street Records
Номер по каталогу: BSR 0406
Страна: New Orleans, Louisiana, U.S.
Аудиокодек: FLAC (*.flac)
Тип рипа: tracks+.cue
Битрейт аудио: lossless
Продолжительность: 01:11:36
Источник (релизер): deepeyes007
Наличие сканов в содержимом раздачи: нет
1. Mo’ Better Blues (05:26)
2. Latin Tinge II (05:56)
3. Romeo and Juliet (02:54)
4. Old Time Indians Meeting of the Chiefs (01:49)
5. James Booker (08:54)
6. El Negro parts 1, 2, 3 (07:15)
7. Fatimah (05:01)
8. Lynch Mob – Interlude (01:40)
9. Blue Dawn (08:08)
10. George Porter (03:53)
11. Super Star feat. Ellis Marsalis (05:07)
12. Wind Song (04:59)
13. I’ll Fly Away (02:27)
14. Mardi Gras Second Line (08:07)
  
Exact Audio Copy V1.0 beta 2 from 29. April 2011

EAC extraction logfile from 21. June 2011, 12:42

Irvin Mayfield / A Love Letter to New Orleans

Used drive : HL-DT-STCD-RW GCE-8483B Adapter: 10 ID: 3

Read mode : SecureUtilize accurate stream : YesDefeat audio cache : YesMake use of C2 pointers : No

Read offset correction : 6Overread into Lead-In and Lead-Out : NoFill up missing offset samples with silence : YesDelete leading and trailing silent blocks : NoNull samples used in CRC calculations : YesUsed interface : Native Win32 interface for Win NT & 2000Gap handling : Appended to previous track

Used output format : User Defined EncoderSelected bitrate : 896 kBit/sQuality : HighAdd ID3 tag : NoCommand line compressor : C:\Program Files (x86)\Exact Audio Copy\FLAC\FLAC.EXEAdditional command line options : -8 -V -T "ARTIST=%artist%" -T "TITLE=%title%" -T "ALBUM=%albumtitle%" -T "DATE=%year%" -T "TRACKNUMBER=%tracknr%" -T "GENRE=%genre%" -T "COMMENT=%comment%" %hascover%--picture="%coverfile%"%hascover% %source% -o %dest%

TOC of the extracted CD

Track | Start | Length | Start sector | End sector --------------------------------------------------------- 1 | 0:00.00 | 5:26.23 | 0 | 24472 2 | 5:26.23 | 5:56.03 | 24473 | 51175 3 | 11:22.26 | 2:53.57 | 51176 | 64207 4 | 14:16.08 | 1:48.57 | 64208 | 72364 5 | 16:04.65 | 8:54.29 | 72365 | 112443 6 | 24:59.19 | 7:15.03 | 112444 | 145071 7 | 32:14.22 | 5:00.67 | 145072 | 167638 8 | 37:15.14 | 1:39.69 | 167639 | 175132 9 | 38:55.08 | 8:08.19 | 175133 | 211751 10 | 47:03.27 | 3:52.44 | 211752 | 229195 11 | 50:55.71 | 5:06.45 | 229196 | 252190 12 | 56:02.41 | 4:58.72 | 252191 | 274612 13 | 61:01.38 | 2:26.66 | 274613 | 285628 14 | 63:28.29 | 8:06.73 | 285629 | 322151

Track 1

Filename Z:\Shared Music\Irvin Mayfield\A Love Letter to New Orleans\ 01-Mo' Better Blues-Jazz-2011.wav

Pre-gap length 0:00:02.00

Peak level 99.6 % Extraction speed 4.8 X Track quality 99.9 % Test CRC A5673394 Copy CRC A5673394 Accurately ripped (confidence 1) [BD7266CA] (AR v2) Copy OK

Track 2

Filename Z:\Shared Music\Irvin Mayfield\A Love Letter to New Orleans\ 02-Latin Tinge II-Jazz-2011.wav

Pre-gap length 0:00:01.93

Peak level 64.5 % Extraction speed 6.4 X Track quality 100.0 % Test CRC 6EC46DA2 Copy CRC 6EC46DA2 Accurately ripped (confidence 1) [F6DA4612] (AR v2) Copy OK

Track 3

Filename Z:\Shared Music\Irvin Mayfield\A Love Letter to New Orleans\ 03-Romeo and Juliet-Jazz-2011.wav

Pre-gap length 0:00:01.76

Peak level 63.1 % Extraction speed 6.3 X Track quality 100.0 % Test CRC 3996365C Copy CRC 3996365C Accurately ripped (confidence 1) [455FD300] (AR v2) Copy OK

Track 4

Filename Z:\Shared Music\Irvin Mayfield\A Love Letter to New Orleans\ 04-Old Time Indians Meeting of the Chiefs-Jazz-2011.wav

Pre-gap length 0:00:01.58

Peak level 96.5 % Extraction speed 5.9 X Track quality 100.0 % Test CRC 0BE11AA9 Copy CRC 0BE11AA9 Accurately ripped (confidence 1) [1F058DF7] (AR v2) Copy OK

Track 5

Filename Z:\Shared Music\Irvin Mayfield\A Love Letter to New Orleans\ 05-James Booker-Jazz-2011.wav

Pre-gap length 0:00:01.30

Peak level 62.4 % Extraction speed 8.0 X Track quality 100.0 % Test CRC 0A133227 Copy CRC 0A133227 Accurately ripped (confidence 1) [63F9855E] (AR v2) Copy OK

Track 6

Filename Z:\Shared Music\Irvin Mayfield\A Love Letter to New Orleans\ 06-El Negro parts 1, 2, 3-Jazz-2011.wav

Pre-gap length 0:00:02.13

Peak level 62.8 % Extraction speed 8.4 X Track quality 100.0 % Test CRC 750C4AB6 Copy CRC 750C4AB6 Accurately ripped (confidence 1) [A4AF310E] (AR v2) Copy OK

Track 7

Filename Z:\Shared Music\Irvin Mayfield\A Love Letter to New Orleans\ 07-Fatimah-Jazz-2011.wav

Pre-gap length 0:00:01.89

Peak level 96.6 % Extraction speed 8.8 X Track quality 100.0 % Test CRC 621BDEB1 Copy CRC 621BDEB1 Accurately ripped (confidence 1) [3A84D99A] (AR v2) Copy OK

Track 8

Filename Z:\Shared Music\Irvin Mayfield\A Love Letter to New Orleans\ 08-Lynch Mob - Interlude-Jazz-2011.wav

Pre-gap length 0:00:00.62

Peak level 78.5 % Extraction speed 5.0 X Track quality 99.8 % Test CRC 46412A95 Copy CRC 46412A95 Accurately ripped (confidence 1) [9CC11787] (AR v2) Copy OK

Track 9

Filename Z:\Shared Music\Irvin Mayfield\A Love Letter to New Orleans\ 09-Blue Dawn-Jazz-2011.wav

Pre-gap length 0:00:03.02

Peak level 95.5 % Extraction speed 10.0 X Track quality 100.0 % Test CRC A5081CAF Copy CRC A5081CAF Accurately ripped (confidence 1) [1CABF26E] (AR v2) Copy OK

Track 10

Filename Z:\Shared Music\Irvin Mayfield\A Love Letter to New Orleans\ 10-George Porter-Jazz-2011.wav

Pre-gap length 0:00:01.33

Peak level 62.3 % Extraction speed 9.6 X Track quality 100.0 % Test CRC CA4CF924 Copy CRC CA4CF924 Accurately ripped (confidence 1) [7E7789A8] (AR v2) Copy OK

Track 11

Filename Z:\Shared Music\Irvin Mayfield\A Love Letter to New Orleans\ 11-Super Star feat. Ellis Marsalis-Jazz-2011.wav

Pre-gap length 0:00:01.08

Peak level 96.6 % Extraction speed 10.2 X Track quality 100.0 % Test CRC 092C1C89 Copy CRC 092C1C89 Accurately ripped (confidence 1) [21ACEA93] (AR v2) Copy OK

Track 12

Filename Z:\Shared Music\Irvin Mayfield\A Love Letter to New Orleans\ 12-Wind Song-Jazz-2011.wav

Pre-gap length 0:00:02.20

Peak level 84.1 % Extraction speed 7.9 X Track quality 99.9 % Test CRC 6A06913A Copy CRC 6A06913A Accurately ripped (confidence 1) [FA72800E] (AR v2) Copy OK

Track 13

Filename Z:\Shared Music\Irvin Mayfield\A Love Letter to New Orleans\ 13-I'll Fly Away-Jazz-2011.wav

Pre-gap length 0:00:01.13

Peak level 78.5 % Extraction speed 4.0 X Track quality 99.8 % Test CRC 5BA1BCA1 Copy CRC 5BA1BCA1 Accurately ripped (confidence 1) [503D7037] (AR v2) Copy OK

Track 14

Filename Z:\Shared Music\Irvin Mayfield\A Love Letter to New Orleans\ 14-Mardi Gras Second Line-Jazz-2011.wav

Pre-gap length 0:00:00.52

Peak level 62.4 % Extraction speed 3.9 X Track quality 99.9 % Test CRC 70C3D652 Copy CRC 70C3D652 Accurately ripped (confidence 1) [5AA6CB16] (AR v2) Copy OK

All tracks accurately ripped

No errors occurred

End of status report

==== Log checksum 86CF0131F593C231D443A06B87ADE08A06D1A6DF334A861B2CDF425AC945A0B9 ====
  
REM GENRE "Basin Street Records"REM DATE 2011REM DISCID D010C70EREM COMMENT "ExactAudioCopy v1.0b2"PERFORMER "Irvin Mayfield"TITLE "A Love Letter to New Orleans"FILE "01-Mo' Better Blues-Jazz-2011.wav" WAVE TRACK 01 AUDIO TITLE "Mo' Better Blues" PERFORMER "Irvin Mayfield" ISRC USBAS1000201 INDEX 01 00:00:00 TRACK 02 AUDIO TITLE "Latin Tinge II" PERFORMER "Irvin Mayfield" ISRC USBAS1000202 INDEX 00 05:24:28FILE "02-Latin Tinge II-Jazz-2011.wav" WAVE INDEX 01 00:00:00 TRACK 03 AUDIO TITLE "Romeo and Juliet" PERFORMER "Irvin Mayfield" ISRC USBAS1000203 INDEX 00 05:54:21FILE "03-Romeo and Juliet-Jazz-2011.wav" WAVE INDEX 01 00:00:00 TRACK 04 AUDIO TITLE "Old Time Indians Meeting of the Chiefs" PERFORMER "Irvin Mayfield" ISRC USBAS1000204 INDEX 00 02:52:13FILE "04-Old Time Indians Meeting of the Chiefs-Jazz-2011.wav" WAVE INDEX 01 00:00:00 TRACK 05 AUDIO TITLE "James Booker" PERFORMER "Irvin Mayfield" ISRC USBAS1000205 INDEX 00 01:47:34FILE "05-James Booker-Jazz-2011.wav" WAVE INDEX 01 00:00:00 TRACK 06 AUDIO TITLE "El Negro parts 1, 2, 3" PERFORMER "Irvin Mayfield" ISRC USBAS1000206 INDEX 00 08:52:19FILE "06-El Negro parts 1, 2, 3-Jazz-2011.wav" WAVE INDEX 01 00:00:00 TRACK 07 AUDIO TITLE "Fatimah" PERFORMER "Irvin Mayfield" ISRC USBAS1000207 INDEX 00 07:13:11FILE "07-Fatimah-Jazz-2011.wav" WAVE INDEX 01 00:00:00 TRACK 08 AUDIO TITLE "Lynch Mob - Interlude" PERFORMER "Irvin Mayfield" ISRC USBAS1000208 INDEX 00 05:00:20FILE "08-Lynch Mob - Interlude-Jazz-2011.wav" WAVE INDEX 01 00:00:00 TRACK 09 AUDIO TITLE "Blue Dawn" PERFORMER "Irvin Mayfield" ISRC USBAS1000209 INDEX 00 01:36:67FILE "09-Blue Dawn-Jazz-2011.wav" WAVE INDEX 01 00:00:00 TRACK 10 AUDIO TITLE "George Porter" PERFORMER "Irvin Mayfield" ISRC USBAS1000210 INDEX 00 08:06:69FILE "10-George Porter-Jazz-2011.wav" WAVE INDEX 01 00:00:00 TRACK 11 AUDIO TITLE "Super Star feat. Ellis Marsalis" PERFORMER "Irvin Mayfield" ISRC USBAS1000211 INDEX 00 03:51:38FILE "11-Super Star feat. Ellis Marsalis-Jazz-2011.wav" WAVE INDEX 01 00:00:00 TRACK 12 AUDIO TITLE "Wind Song" PERFORMER "Irvin Mayfield" ISRC USBAS1000212 INDEX 00 05:04:30FILE "12-Wind Song-Jazz-2011.wav" WAVE INDEX 01 00:00:00 TRACK 13 AUDIO TITLE "I'll Fly Away" PERFORMER "Irvin Mayfield" ISRC USBAS1000213 INDEX 00 04:57:62FILE "13-I'll Fly Away-Jazz-2011.wav" WAVE INDEX 01 00:00:00 TRACK 14 AUDIO TITLE "Mardi Gras Second Line" PERFORMER "Irvin Mayfield" ISRC USBAS1000214 INDEX 00 02:26:27FILE "14-Mardi Gras Second Line-Jazz-2011.wav" WAVE INDEX 01 00:00:00


Трекер:  [ 22-Фев-2012 15:09 ]

  

Скачать .torrent

Размер .torrent файла 17 KB


Размер: 390 MB
Хэш (hash) релиза: 08461b9b9d622b41d878ccbcfda2f095c96fe723

Еще никто не оставлял запись к записи скачать торрент Irvin Mayfield - A Love Letter to New Orleans - 2011, FLAC . Будь первым!

!Обратная связь