Скачать через торрент музыку Rebirth Brass Band - Rebirth of New Orleans - 2011, FLAC бесплатно без регистрации torrent

Если у вас наблюдаются проблемы со скриншотами, переходом по ссылками, скачиванием торрентов - проблемы в блокировщике рекламы AdBlock. #хорошегоДня!


Статистика раздачи
Размер:  369 MB   |    Зарегистрирован:  5 лет 7 месяцев   |    .torrent скачан:  49 раз   |   
Раздают:  1  
   
Загрузка...
 
Автор Сообщение

Umakiro

avatar Umakiro


Rebirth Brass Band / Rebirth of New Orleans / 2011

Жанр: New Orleans Brass Bands, funk
Страна-производитель диска: USA
Год издания диска: 2011
Издатель (лейбл): Basin Street Records
Аудио кодек: FLAC (*.flac)
Тип рипа: tracks+.cue
Битрейт аудио: lossless
Продолжительность: 00:52:26
Источник (релизер): источник другой трекер, релизёр slithey
Наличие сканов в содержимом раздачи: нет
Треклист:
1. Exactly Like You 3:38
2. I Like It Like That 4:39
3. You Know You Know 5:02
4. The Dilemma 3:53
5. AP Touro 6:00
6. What Goes Around Comes Around 5:53
7. Do It Again 4:50
8. Why Your Feet Hurt 4:09
9. Shrimp And Gumbo 2:37
10. Feelin' Free 7:03
11. Let's Go Get 'Em 4:38
  
Exact Audio Copy V1.0 beta 1 from 15. November 2010

EAC extraction logfile from 24. May 2011, 12:38

Rebirth Brass Band / Rebirth of New Orleans

Used drive : ATAPI iHBS212 2 Adapter: 2 ID: 0

Read mode : SecureUtilize accurate stream : YesDefeat audio cache : YesMake use of C2 pointers : No

Read offset correction : 6Overread into Lead-In and Lead-Out : NoFill up missing offset samples with silence : YesDelete leading and trailing silent blocks : NoNull samples used in CRC calculations : YesUsed interface : Native Win32 interface for Win NT & 2000Gap handling : Appended to previous track

Used output format : User Defined EncoderSelected bitrate : 896 kBit/sQuality : HighAdd ID3 tag : NoCommand line compressor : C:\Program Files (x86)\Exact Audio Copy\FLAC\FLAC.EXEAdditional command line options : -8 -V -T "ARTIST=%a" -T "TITLE=%t" -T "ALBUM=%g" -T "DATE=%y" -T "TRACKNUMBER=%n" -T "GENRE=%m" -T "COMMENT=%e" %j--picture="%i"%j %s -o %d

TOC of the extracted CD

Track | Start | Length | Start sector | End sector --------------------------------------------------------- 1 | 0:00.15 | 3:38.30 | 15 | 16394 2 | 3:38.45 | 4:38.73 | 16395 | 37317 3 | 8:17.43 | 5:02.47 | 37318 | 60014 4 | 13:20.15 | 3:53.68 | 60015 | 77557 5 | 17:14.08 | 6:00.30 | 77558 | 104587 6 | 23:14.38 | 5:53.12 | 104588 | 131074 7 | 29:07.50 | 4:49.72 | 131075 | 152821 8 | 33:57.47 | 4:09.05 | 152822 | 171501 9 | 38:06.52 | 2:37.10 | 171502 | 183286 10 | 40:43.62 | 7:03.69 | 183287 | 215080 11 | 47:47.56 | 4:38.68 | 215081 | 235998

Track 1

Filename Z:\Shared Music\Rebirth Brass Band\Rebirth of New Orleans\ 01-Exactly Like You-Jazz-2011.wav

Pre-gap length 0:00:02.20

Peak level 100.0 % Extraction speed 5.0 X Track quality 100.0 % Test CRC AAFDF22D Copy CRC AAFDF22D Track not present in AccurateRip database Copy OK

Track 2

Filename Z:\Shared Music\Rebirth Brass Band\Rebirth of New Orleans\ 02-I Like It Like That-Jazz-2011.wav

Pre-gap length 0:00:01.74

Peak level 100.0 % Extraction speed 5.9 X Track quality 100.0 % Test CRC 49F0C666 Copy CRC 49F0C666 Track not present in AccurateRip database Copy OK

Track 3

Filename Z:\Shared Music\Rebirth Brass Band\Rebirth of New Orleans\ 03-You Know You Know-Jazz-2011.wav

Pre-gap length 0:00:04.60

Peak level 100.0 % Extraction speed 6.6 X Track quality 100.0 % Test CRC DB158A62 Copy CRC DB158A62 Track not present in AccurateRip database Copy OK

Track 4

Filename Z:\Shared Music\Rebirth Brass Band\Rebirth of New Orleans\ 04-The Dilemma-Jazz-2011.wav

Pre-gap length 0:00:01.53

Peak level 100.0 % Extraction speed 7.0 X Track quality 100.0 % Test CRC 9539DC9D Copy CRC 9539DC9D Track not present in AccurateRip database Copy OK

Track 5

Filename Z:\Shared Music\Rebirth Brass Band\Rebirth of New Orleans\ 05-AP Touro-Jazz-2011.wav

Pre-gap length 0:00:02.54

Peak level 100.0 % Extraction speed 7.9 X Track quality 100.0 % Test CRC E576D084 Copy CRC E576D084 Track not present in AccurateRip database Copy OK

Track 6

Filename Z:\Shared Music\Rebirth Brass Band\Rebirth of New Orleans\ 06-What Goes Around Comes Around-Jazz-2011.wav

Pre-gap length 0:00:01.56

Peak level 100.0 % Extraction speed 8.5 X Track quality 100.0 % Test CRC 0A274FEF Copy CRC 0A274FEF Track not present in AccurateRip database Copy OK

Track 7

Filename Z:\Shared Music\Rebirth Brass Band\Rebirth of New Orleans\ 07-Do It Again-Jazz-2011.wav

Pre-gap length 0:00:02.84

Peak level 100.0 % Extraction speed 8.8 X Track quality 100.0 % Test CRC 4FE94BCC Copy CRC 4FE94BCC Track not present in AccurateRip database Copy OK

Track 8

Filename Z:\Shared Music\Rebirth Brass Band\Rebirth of New Orleans\ 08-Why Your Feet Hurt-Jazz-2011.wav

Pre-gap length 0:00:02.73

Peak level 100.0 % Extraction speed 7.5 X Track quality 99.9 % Test CRC ECE8AA97 Copy CRC ECE8AA97 Track not present in AccurateRip database Copy OK

Track 9

Filename Z:\Shared Music\Rebirth Brass Band\Rebirth of New Orleans\ 09-Shrimp and Gumbo-Jazz-2011.wav

Pre-gap length 0:00:01.30

Peak level 100.0 % Extraction speed 8.6 X Track quality 100.0 % Test CRC AD7029D7 Copy CRC AD7029D7 Track not present in AccurateRip database Copy OK

Track 10

Filename Z:\Shared Music\Rebirth Brass Band\Rebirth of New Orleans\ 10-Feelin' Free-Jazz-2011.wav

Pre-gap length 0:00:01.37

Peak level 100.0 % Extraction speed 10.3 X Track quality 100.0 % Test CRC 148AE3A1 Copy CRC 148AE3A1 Track not present in AccurateRip database Copy OK

Track 11

Filename Z:\Shared Music\Rebirth Brass Band\Rebirth of New Orleans\ 11-Let's Go Get 'Em-Jazz-2011.wav

Pre-gap length 0:00:01.73

Peak level 100.0 % Extraction speed 10.3 X Track quality 100.0 % Test CRC 4FFD4A53 Copy CRC 4FFD4A53 Track not present in AccurateRip database Copy OK

None of the tracks are present in the AccurateRip database

No errors occurred

End of status report

==== Log checksum F0F2457D70908E790400B4D8FF6CA11DDF355705254372050C1663B0DD9554EB ====
  
REM GENRE "Basin Street Records"REM DATE 2011REM DISCID A20C4A0BREM COMMENT "ExactAudioCopy v1.0b1"PERFORMER "Rebirth Brass Band"TITLE "Rebirth of New Orleans"FILE "Rebirth Brass Band\Rebirth of New Orleans\ 01-Exactly Like You-Jazz-2011.wav" WAVE TRACK 01 AUDIO TITLE "Exactly Like You" PERFORMER "Rebirth Brass Band" ISRC USBAS1100101 FLAGS DCP PREGAP 00:00:15 INDEX 01 00:00:00 TRACK 02 AUDIO TITLE "I Like It Like That" PERFORMER "Rebirth Brass Band" ISRC USBAS1100102 FLAGS DCP INDEX 00 03:36:49FILE "Rebirth Brass Band\Rebirth of New Orleans\ 02-I Like It Like That-Jazz-2011.wav" WAVE INDEX 01 00:00:00 TRACK 03 AUDIO TITLE "You Know You Know" PERFORMER "Rebirth Brass Band" ISRC USBAS1100103 FLAGS DCP INDEX 00 04:34:28FILE "Rebirth Brass Band\Rebirth of New Orleans\ 03-You Know You Know-Jazz-2011.wav" WAVE INDEX 01 00:00:00 TRACK 04 AUDIO TITLE "The Dilemma" PERFORMER "Rebirth Brass Band" ISRC USBAS1100104 FLAGS DCP INDEX 00 05:01:07FILE "Rebirth Brass Band\Rebirth of New Orleans\ 04-The Dilemma-Jazz-2011.wav" WAVE INDEX 01 00:00:00 TRACK 05 AUDIO TITLE "AP Touro" PERFORMER "Rebirth Brass Band" ISRC USBAS1100105 FLAGS DCP INDEX 00 03:51:27FILE "Rebirth Brass Band\Rebirth of New Orleans\ 05-AP Touro-Jazz-2011.wav" WAVE INDEX 01 00:00:00 TRACK 06 AUDIO TITLE "What Goes Around Comes Around" PERFORMER "Rebirth Brass Band" ISRC USBAS1100106 FLAGS DCP INDEX 00 05:58:63FILE "Rebirth Brass Band\Rebirth of New Orleans\ 06-What Goes Around Comes Around-Jazz-2011.wav" WAVE INDEX 01 00:00:00 TRACK 07 AUDIO TITLE "Do It Again" PERFORMER "Rebirth Brass Band" ISRC USBAS1100107 FLAGS DCP INDEX 00 05:50:24FILE "Rebirth Brass Band\Rebirth of New Orleans\ 07-Do It Again-Jazz-2011.wav" WAVE INDEX 01 00:00:00 TRACK 08 AUDIO TITLE "Why Your Feet Hurt" PERFORMER "Rebirth Brass Band" ISRC USBAS1100108 FLAGS DCP INDEX 00 04:47:17FILE "Rebirth Brass Band\Rebirth of New Orleans\ 08-Why Your Feet Hurt-Jazz-2011.wav" WAVE INDEX 01 00:00:00 TRACK 09 AUDIO TITLE "Shrimp and Gumbo" PERFORMER "Rebirth Brass Band" ISRC USBAS1100109 FLAGS DCP INDEX 00 04:07:57FILE "Rebirth Brass Band\Rebirth of New Orleans\ 09-Shrimp and Gumbo-Jazz-2011.wav" WAVE INDEX 01 00:00:00 TRACK 10 AUDIO TITLE "Feelin' Free" PERFORMER "Rebirth Brass Band" ISRC USBAS1100110 FLAGS DCP INDEX 00 02:35:57FILE "Rebirth Brass Band\Rebirth of New Orleans\ 10-Feelin' Free-Jazz-2011.wav" WAVE INDEX 01 00:00:00 TRACK 11 AUDIO TITLE "Let's Go Get 'Em" PERFORMER "Rebirth Brass Band" ISRC USBAS1100111 FLAGS DCP INDEX 00 07:02:14FILE "Rebirth Brass Band\Rebirth of New Orleans\ 11-Let's Go Get 'Em-Jazz-2011.wav" WAVE INDEX 01 00:00:00
***New Orleans brass band formed in 1983 by Philip and Keith Frazier, jazz trumpeter Kermit Ruffins and other musicians attending Clark High School in Treme at that time.
***Review by Tony Bonyata

Celebrating almost thirty years as one of New Orleans' ambassadors to the sounds that have been percolating up from the city streets throughout the last century, the Rebirth Brass Band are about to release their latest full-length album aptly titled Rebirth of New Orleans. Through an exuberant and upbeat blend of second-line jazz, funk, soul and Latin flourishes this brass ensemble rejoices over the slow, yet continuing rebuild of their hometown since it was devastated back in 2005 by Hurricane Katrina. And it's a long overdue celebratory statement.

The Rebirth Brass Band originally formed back in 1982 by brothers Philip Frazier (tuba / sousaphone) and Keith Frazier (bass drum) along with Kermit Ruffins (trumpet), the latter who would start his own successful solo career, in the economically poor but culturally rich neighborhood of Treme. Along with other modern-day New Orleans institutes such as The Dirty Dozen Brass Band and (my personal favorite) Treme Brass Band, The Rebirth have served as one of the musical foundations of the city's longstanding brass band traditions. Their Tuesday night residency through the years at the Maple Leaf Bar in New Orleans' Carrollton district has served as an incubator for their rough and rambunctious music style, and has seen the band travel far beyond it's humble tin-lined walls to enthusiastic crowds at concert halls and major festivals throughout the world.

Rebirth of New Orleans kicks off with the rollicking second-line jazz of "Exactly Like You" and with other spicy Latin-infused jazz numbers such as "The Dilemma," "Shrimp and Gumbo" and "Do It Again" the sights and smells of New Orleans actually seem to permeate through the speakers. But it's the interjection of funk and even hip-hip that really sets this band apart from both their contemporaries and brass band forefathers, such as the Eureka, Tuxedo and Olympia Brass Bands. While they've downplayed any hip-hop influences for this effort, thankfully they've left in some of the funk, albeit not as gritty as on previous efforts, on the bawdy number "I Like It Like That," as well as "You Know You Know" and "Feelin' Free."

New Orleans has never been at a loss when looking for a reason to party. From Mardi Gras, Jazz Fest and funerals, to events as minute as the sun coming up or the sun going down (which seems to be a local favorite), New Orleanians have always been ready to dance in the streets. Now with the city on the mends, The Rebirth Brass Band have created a joyous soundtrack for locals and out-of-towners alike to revel over.
Personnel:

Vincent Broussard (saxophone);
Derrick Shezbie, Glen Andrews, Chadrick Honore (trumpet);
Corey Henry, Stafford Agee (trombone);
Phil Frazier (tuba);
Derrick Tabb (snare drum);
Soloman Doyle III, Reed Watson (percussion).

Audio Mixer: Chris Finney.
Recording information: The Music Shed, New Orleans, LA (2010).


Трекер:  [ 22-Фев-2012 15:08 ]

  

Скачать .torrent

Размер .torrent файла 15 KB


Размер: 369 MB
Хэш (hash) релиза: 92d615fa126241ce034a68c7998ca476867563e5

Еще никто не оставлял запись к записи скачать торрент Rebirth Brass Band - Rebirth of New Orleans - 2011, FLAC . Будь первым!

!Обратная связь