Скачать через торрент музыку Gregory Page - Love Made Me Drunk - 2006, APE бесплатно без регистрации torrent

Если у вас наблюдаются проблемы со скриншотами, переходом по ссылками, скачиванием торрентов - проблемы в блокировщике рекламы AdBlock. #хорошегоДня!


Статистика раздачи
Размер:  242 MB   |    Зарегистрирован:  5 лет 7 месяцев   |    .torrent скачан:  39 раз   |   
Раздают:  1  
   
Загрузка...
 
Автор Сообщение

Umakiro

avatar Umakiro


Gregory Page / Love Made Me Drunk

Жанр: Retro/ Jazz
Страна-производитель диска: USA
Год издания диска: 2006
Издатель (лейбл): Seedling Records
Номер по каталогу: CD-SDL-0002
Страна: USA
Аудиокодек: APE (*.ape)
Тип рипа: image+.cue
Битрейт аудио: lossless
Продолжительность: 48:29
Источник (релизер): собственный диск
Наличие сканов в содержимом раздачи: да
Треклист:
1. Bon Voyage Mon Cheri 4:58

2. Love Made Me Drunk 3:3

3. Le Carrousel Magique 2:25

4. April In Paris 3:47

5. Funny Dear, What Love Can Do 3:04

6. Valse De Virgine 3:10

7. In Love With Love 4:18

8. Bon Voyage Mon Cheri 3:44

9. One Cloud For Two 3:52

10. Valse De Julia 2:19

11. Rose Colored Heart 3:28

12. Valse Pour Un Ange Ivre 3:08
  
Exact Audio Copy V0.99 prebeta 3 from 28. July 2007

EAC extraction logfile from 18. February 2012, 15:17

Gregory Page / Love Made Me Drunk

Used drive : PBDS CDRWDVD DH-48C2S Adapter: 1 ID: 0

Read mode : SecureUtilize accurate stream : YesDefeat audio cache : YesMake use of C2 pointers : No

Read offset correction : 6Overread into Lead-In and Lead-Out : NoFill up missing offset samples with silence : YesDelete leading and trailing silent blocks : NoNull samples used in CRC calculations : NoUsed interface : Native Win32 interface for Win NT & 2000

Used output format : Internal WAV RoutinesSample format : 44.100 Hz; 16 Bit; Stereo

TOC of the extracted CD

Track | Start | Length | Start sector | End sector --------------------------------------------------------- 1 | 0:00.00 | 4:14.10 | 0 | 19059 2 | 4:14.10 | 3:17.65 | 19060 | 33899 3 | 7:32.00 | 3:10.44 | 33900 | 48193 4 | 10:42.44 | 4:19.13 | 48194 | 67631 5 | 15:01.57 | 2:54.69 | 67632 | 80750 6 | 17:56.51 | 2:26.32 | 80751 | 91732 7 | 20:23.08 | 3:51.69 | 91733 | 109126 8 | 24:15.02 | 2:19.39 | 109127 | 119590 9 | 26:34.41 | 3:27.60 | 119591 | 135175 10 | 30:02.26 | 4:05.46 | 135176 | 153596 11 | 34:07.72 | 3:31.42 | 153597 | 169463 12 | 37:39.39 | 3:46.73 | 169464 | 186486 13 | 41:26.37 | 4:16.15 | 186487 | 205701 14 | 45:42.52 | 2:46.33 | 205702 | 218184

Range status and errors

Selected range

Filename C:\Users\valera and Natasha\Downloads\Gregory Page - Love Made Me Drunk\Gregory Page - Love Made Me Drunk.wav

Peak level 99.0 % Range quality 100.0 % Copy CRC 33FEFD58 Copy OK

No errors occurred

AccurateRip summary

Track 1 not present in databaseTrack 2 not present in databaseTrack 3 not present in databaseTrack 4 not present in databaseTrack 5 not present in databaseTrack 6 not present in databaseTrack 7 not present in databaseTrack 8 not present in databaseTrack 9 not present in databaseTrack 10 not present in databaseTrack 11 not present in databaseTrack 12 not present in databaseTrack 13 not present in databaseTrack 14 not present in database

None of the tracks are present in the AccurateRip database

End of status report
  
REM GENRE JazzREM DATE 2006REM DISCID C40B5D0EREM COMMENT "ExactAudioCopy v0.99pb3"PERFORMER "Gregory Page"TITLE "Love Made Me Drunk"FILE "Gregory Page - Love Made Me Drunk.wav" WAVE TRACK 01 AUDIO TITLE "Track01" PERFORMER "Gregory Page" INDEX 01 00:00:00 TRACK 02 AUDIO TITLE "Track02" PERFORMER "Gregory Page" INDEX 01 04:14:10 TRACK 03 AUDIO TITLE "Track03" PERFORMER "Gregory Page" INDEX 01 07:32:00 TRACK 04 AUDIO TITLE "Track04" PERFORMER "Gregory Page" INDEX 01 10:42:44 TRACK 05 AUDIO TITLE "Track05" PERFORMER "Gregory Page" INDEX 01 15:01:57 TRACK 06 AUDIO TITLE "Track06" PERFORMER "Gregory Page" INDEX 01 17:56:51 TRACK 07 AUDIO TITLE "Track07" PERFORMER "Gregory Page" INDEX 01 20:23:08 TRACK 08 AUDIO TITLE "Track08" PERFORMER "Gregory Page" INDEX 01 24:15:02 TRACK 09 AUDIO TITLE "Track09" PERFORMER "Gregory Page" INDEX 01 26:34:41 TRACK 10 AUDIO TITLE "Track10" PERFORMER "Gregory Page" INDEX 01 30:02:26 TRACK 11 AUDIO TITLE "Track11" PERFORMER "Gregory Page" INDEX 00 34:07:27 INDEX 01 34:07:72 TRACK 12 AUDIO TITLE "Track12" PERFORMER "Gregory Page" INDEX 01 37:39:39 TRACK 13 AUDIO TITLE "Track13" PERFORMER "Gregory Page" INDEX 01 41:26:37 TRACK 14 AUDIO TITLE "Track14" PERFORMER "Gregory Page" INDEX 00 45:40:49 INDEX 01 45:42:52
Gregory Page is a singer, songwriter, guitarist, and record producer. He was born in London, England on Easter Sunday in 1963. His Armenian and Irish parents met while they were on tour with their bands en route to the Middle East. According to an interview with KGTV reporter Phil Konstantin, Gregory showed little interest in academic or business studies as a boy. However, he was always fascinated listening to 78 rpm records on his grandfather's phonograph. Upon arriving in the United States, he began a series of odd jobs, including as a cab driver and cook. He also began tirelessly writing and recording his own brand of music. It is easy to observe that the voice and music of Al Bowlly had a definite effect on Page's career. According to Page: "The tightrope my music teeters upon is the struggle between tradition & progress, history & fantasy. I am the songbird & the worm." [1]

Besides working on his own music, Page has also worked with an array of artists such as Jason Mraz, John Doe, Jewel, Tom Brosseau, Steve Poltz and A.J. Croce.[2] In 1996, John Doe, formerly of the band X, provided lead guitar on and produced his independently released Fare thee Well album. His collaboration and friendship with Croce enticed him to join A.J.'s label Seedling Records and to release his CD, Love Made Me Drunk. In the 1990s, Gregory was a member of The Rugburns,.[3]

He is currently living in Southern California and frequently tours Europe and Australia.[2][4] Page's new self-released album "My True Love" is a tip of the hat to Al Bowlly and the Sweet Jazz from another era. Like the music of Al, Louis Armstrong, Billie Holiday & Cole Porter, Page is not just inspired by American music, he is American Music.


Трекер:  [ 22-Фев-2012 15:06 ]

  

Скачать .torrent

Размер .torrent файла 19 KB


Размер: 242 MB
Хэш (hash) релиза: 7d4df306c2beb6510d6ae3a9fdfca97b0e81d466

Еще никто не оставлял запись к записи скачать торрент Gregory Page - Love Made Me Drunk - 2006, APE . Будь первым!

!Обратная связь