Скачать через торрент музыку Django Reinhardt - Memorial бесплатно без регистрации torrent

Если у вас наблюдаются проблемы со скриншотами, переходом по ссылками, скачиванием торрентов - проблемы в блокировщике рекламы AdBlock. #хорошегоДня!


Статистика раздачи
Размер:  275 MB   |    Зарегистрирован:  5 лет 8 месяцев   |    .torrent скачан:  51 раз   |   
Раздают:  1   Качают:  1  
   
Загрузка...
 
Автор Сообщение

Umakiro

avatar Umakiro


Django Reinhardt – Memorial (2 CD)

Жанр: Swing, Gypsy
Год издания диска: 2006
Издатель (лейбл): Empire Musicwerks
Номер по каталогу: 545 450 826-2
Аудиокодек: FLAC (*.flac)
Тип рипа: tracks+.cue
Битрейт аудио: lossless
Продолжительность: 58:57 / 58:03
Rip by MidnightRocker
Наличие сканов в содержимом раздачи: да

CD 1
01. Topsy (3:04)
02. September Song (3:25)
03. Moppin' The Bride (Micro) (2:19)
04. Brazil (2:45)
05. Anniversary Song (3:33)
06. Swing 48 (2:47)
07. Django's Blues (3:05)
08. Mano (2:53)
09. Blues Primitif (2:43)
10. Blues Clair (2:44)
11. Danse Norvegienne (3:00)
12. Blues For Barclay (Take 1) (3:01)
13. I'll Never Smile Again (Take 2) (2:45)
14. Confessin' (2:56)
15. Night And Day (2:54)
16. Swingtime In Springtime (3:09)
17. Blues En Mineur (3:29)
18. Manor De Mes Rêves (3:49)
19. Babik (2:05)
20. Swing 39 (2:31)

CD 2
01. Melodie Au Crepuscule (3:16)
02. Feerie (2:19)
03. Dinette (2:53)
04. Minor Swing (2:51)
05. Swing 41 (3:11)
06. Artillerie Lourde (4:16)
07. Peche A La Mouche (2:16)
08. Stockholm (3:20)
09. Nuages (3:19)
10. Del Salle (3:20)
11. Vendredi 13 (2:00)
12. Sweet Chorus (3:02)
13. Crepuscule (3:59)
14. Song D'Automne (3:22)
15. Folie A Amphion (2:52)
16. Swing Guitars (3:02)
17. Belleville (2:34)
18. Douce Ambiance (2:22)
19. Swing De Paris (3:48)
  
Exact Audio Copy V0.99 prebeta 5 from 4. May 2009

EAC extraction logfile from 18. October 2009, 7:29

Django Reinhardt / Memorial (Disc 1)

Used drive : PLEXTOR DVDR PX-760A Adapter: 0 ID: 0

Read mode : SecureUtilize accurate stream : YesDefeat audio cache : YesMake use of C2 pointers : No

Read offset correction : 30Overread into Lead-In and Lead-Out : NoFill up missing offset samples with silence : YesDelete leading and trailing silent blocks : NoNull samples used in CRC calculations : YesUsed interface : Native Win32 interface for Win NT & 2000Gap handling : Appended to previous track

Used output format : Internal WAV RoutinesSample format : 44.100 Hz; 16 Bit; Stereo

TOC of the extracted CD

Track | Start | Length | Start sector | End sector --------------------------------------------------------- 1 | 0:00.00 | 3:03.72 | 0 | 13796 2 | 3:03.72 | 3:25.06 | 13797 | 29177 3 | 6:29.03 | 2:19.22 | 29178 | 39624 4 | 8:48.25 | 2:45.06 | 39625 | 52005 5 | 11:33.31 | 3:32.40 | 52006 | 67945 6 | 15:05.71 | 2:46.58 | 67946 | 80453 7 | 17:52.54 | 3:05.03 | 80454 | 94331 8 | 20:57.57 | 2:53.10 | 94332 | 107316 9 | 23:50.67 | 2:42.66 | 107317 | 119532 10 | 26:33.58 | 2:44.22 | 119533 | 131854 11 | 29:18.05 | 3:00.27 | 131855 | 145381 12 | 32:18.32 | 3:00.52 | 145382 | 158933 13 | 35:19.09 | 2:44.57 | 158934 | 171290 14 | 38:03.66 | 2:55.74 | 171291 | 184489 15 | 40:59.65 | 2:54.36 | 184490 | 197575 16 | 43:54.26 | 3:08.65 | 197576 | 211740 17 | 47:03.16 | 3:29.10 | 211741 | 227425 18 | 50:32.26 | 3:48.66 | 227426 | 244591 19 | 54:21.17 | 2:05.16 | 244592 | 253982 20 | 56:26.33 | 2:30.59 | 253983 | 265291

Track 1

Filename L:\Torrents\Django Reinhardt - Memorial (1953) [FLAC] (2006 Empire Musicwerks)\Disc 1\01 - Topsy.wav

Pre-gap length 0:00:02.00

Peak level 99.8 % Track quality 99.9 % Test CRC EAA21544 Copy CRC EAA21544 Accurately ripped (confidence 1) [ED0FE350] Copy OK

Track 2

Filename L:\Torrents\Django Reinhardt - Memorial (1953) [FLAC] (2006 Empire Musicwerks)\Disc 1\02 - September Song.wav

Pre-gap length 0:00:02.00

Peak level 96.7 % Track quality 100.0 % Test CRC 7B5517F1 Copy CRC 7B5517F1 Accurately ripped (confidence 1) [C8808463] Copy OK

Track 3

Filename L:\Torrents\Django Reinhardt - Memorial (1953) [FLAC] (2006 Empire Musicwerks)\Disc 1\03 - Danse Nuptiale (Moppin' the Bride).wav

Pre-gap length 0:00:02.00

Peak level 99.8 % Track quality 100.0 % Test CRC C41D6B66 Copy CRC C41D6B66 Accurately ripped (confidence 1) [B95A65DD] Copy OK

Track 4

Filename L:\Torrents\Django Reinhardt - Memorial (1953) [FLAC] (2006 Empire Musicwerks)\Disc 1\04 - Brazil.wav

Pre-gap length 0:00:02.00

Peak level 99.8 % Track quality 100.0 % Test CRC AB0980B6 Copy CRC AB0980B6 Accurately ripped (confidence 1) [985E706F] Copy OK

Track 5

Filename L:\Torrents\Django Reinhardt - Memorial (1953) [FLAC] (2006 Empire Musicwerks)\Disc 1\05 - Anniversary Song.wav

Pre-gap length 0:00:02.00

Peak level 99.8 % Track quality 99.9 % Test CRC 3B570462 Copy CRC 3B570462 Accurately ripped (confidence 1) [69D230AA] Copy OK

Track 6

Filename L:\Torrents\Django Reinhardt - Memorial (1953) [FLAC] (2006 Empire Musicwerks)\Disc 1\06 - Swing 49.wav

Pre-gap length 0:00:02.00

Peak level 99.8 % Track quality 100.0 % Test CRC FB448F47 Copy CRC FB448F47 Accurately ripped (confidence 1) [0FFF92AD] Copy OK

Track 7

Filename L:\Torrents\Django Reinhardt - Memorial (1953) [FLAC] (2006 Empire Musicwerks)\Disc 1\07 - Django's Blues.wav

Pre-gap length 0:00:02.00

Peak level 99.8 % Track quality 100.0 % Test CRC 5C09D692 Copy CRC 5C09D692 Accurately ripped (confidence 1) [7455F8CE] Copy OK

Track 8

Filename L:\Torrents\Django Reinhardt - Memorial (1953) [FLAC] (2006 Empire Musicwerks)\Disc 1\08 - Mano.wav

Pre-gap length 0:00:02.00

Peak level 99.8 % Track quality 100.0 % Test CRC 2F071057 Copy CRC 2F071057 Accurately ripped (confidence 1) [05831022] Copy OK

Track 9

Filename L:\Torrents\Django Reinhardt - Memorial (1953) [FLAC] (2006 Empire Musicwerks)\Disc 1\09 - Blues Primitif.wav

Pre-gap length 0:00:02.00

Peak level 99.8 % Track quality 100.0 % Test CRC 33DFD3BD Copy CRC 33DFD3BD Accurately ripped (confidence 1) [91F59900] Copy OK

Track 10

Filename L:\Torrents\Django Reinhardt - Memorial (1953) [FLAC] (2006 Empire Musicwerks)\Disc 1\10 - Gypsy With a Song.wav

Pre-gap length 0:00:02.00

Peak level 99.8 % Track quality 100.0 % Test CRC B3BC2E28 Copy CRC B3BC2E28 Accurately ripped (confidence 1) [DA326B37] Copy OK

Track 11

Filename L:\Torrents\Django Reinhardt - Memorial (1953) [FLAC] (2006 Empire Musicwerks)\Disc 1\11 - Danse Norvegienne.wav

Pre-gap length 0:00:02.00

Peak level 99.8 % Track quality 100.0 % Test CRC D5579354 Copy CRC D5579354 Accurately ripped (confidence 1) [F74E1135] Copy OK

Track 12

Filename L:\Torrents\Django Reinhardt - Memorial (1953) [FLAC] (2006 Empire Musicwerks)\Disc 1\12 - Blues for Barclay - (Take 1).wav

Pre-gap length 0:00:02.00

Peak level 87.7 % Track quality 100.0 % Test CRC 65F4C2B2 Copy CRC 65F4C2B2 Accurately ripped (confidence 1) [F7D83F06] Copy OK

Track 13

Filename L:\Torrents\Django Reinhardt - Memorial (1953) [FLAC] (2006 Empire Musicwerks)\Disc 1\13 - I'll Never Smile Again.wav

Pre-gap length 0:00:02.00

Peak level 99.8 % Track quality 100.0 % Test CRC 62F35081 Copy CRC 62F35081 Accurately ripped (confidence 1) [68F10F05] Copy OK

Track 14

Filename L:\Torrents\Django Reinhardt - Memorial (1953) [FLAC] (2006 Empire Musicwerks)\Disc 1\14 - Confessin'.wav

Pre-gap length 0:00:02.00

Peak level 99.8 % Track quality 99.9 % Test CRC 39EF3682 Copy CRC 39EF3682 Accurately ripped (confidence 1) [7235F4FE] Copy OK

Track 15

Filename L:\Torrents\Django Reinhardt - Memorial (1953) [FLAC] (2006 Empire Musicwerks)\Disc 1\15 - Night and Day.wav

Pre-gap length 0:00:02.00

Peak level 99.8 % Track quality 100.0 % Test CRC 98BF115C Copy CRC 98BF115C Accurately ripped (confidence 1) [93E5EFAE] Copy OK

Track 16

Filename L:\Torrents\Django Reinhardt - Memorial (1953) [FLAC] (2006 Empire Musicwerks)\Disc 1\16 - Fantasie.wav

Pre-gap length 0:00:02.00

Peak level 99.8 % Track quality 100.0 % Test CRC CC3A4395 Copy CRC CC3A4395 Accurately ripped (confidence 1) [6FE92842] Copy OK

Track 17

Filename L:\Torrents\Django Reinhardt - Memorial (1953) [FLAC] (2006 Empire Musicwerks)\Disc 1\17 - Blues en Mineur.wav

Pre-gap length 0:00:02.00

Peak level 99.5 % Track quality 100.0 % Test CRC CAFFF177 Copy CRC CAFFF177 Accurately ripped (confidence 1) [6E97DA17] Copy OK

Track 18

Filename L:\Torrents\Django Reinhardt - Memorial (1953) [FLAC] (2006 Empire Musicwerks)\Disc 1\18 - Manoir de mes Rкves.wav

Pre-gap length 0:00:02.00

Peak level 89.4 % Track quality 100.0 % Test CRC 58B6C08A Copy CRC 58B6C08A Accurately ripped (confidence 1) [FD80013A] Copy OK

Track 19

Filename L:\Torrents\Django Reinhardt - Memorial (1953) [FLAC] (2006 Empire Musicwerks)\Disc 1\19 - Babik.wav

Pre-gap length 0:00:02.00

Peak level 99.8 % Track quality 99.9 % Test CRC FAD156CB Copy CRC FAD156CB Accurately ripped (confidence 1) [8359BAAA] Copy OK

Track 20

Filename L:\Torrents\Django Reinhardt - Memorial (1953) [FLAC] (2006 Empire Musicwerks)\Disc 1\20 - Swing 39.wav

Pre-gap length 0:00:02.00

Peak level 99.8 % Track quality 99.9 % Test CRC 92CA8768 Copy CRC 92CA8768 Accurately ripped (confidence 1) [666FAF78] Copy OK

All tracks accurately ripped

No errors occurred

End of status report
  
REM GENRE JazzREM DATE 2006REM DISCID 150DD114REM COMMENT "ExactAudioCopy v0.99pb5"PERFORMER "Django Reinhardt"TITLE "Memorial (disc 1)"FILE "01. Topsy.flac" WAVE TRACK 01 AUDIO TITLE "Topsy" PERFORMER "Django Reinhardt" INDEX 01 00:00:00 TRACK 02 AUDIO TITLE "September Song" PERFORMER "Django Reinhardt" INDEX 00 03:01:72FILE "02. September Song.flac" WAVE INDEX 01 00:00:00 TRACK 03 AUDIO TITLE "Moppin' The Bride (Micro)" PERFORMER "Django Reinhardt" INDEX 00 03:23:06FILE "03. Moppin' The Bride (Micro).flac" WAVE INDEX 01 00:00:00 TRACK 04 AUDIO TITLE "Brazil" PERFORMER "Django Reinhardt" INDEX 00 02:17:22FILE "04. Brazil.flac" WAVE INDEX 01 00:00:00 TRACK 05 AUDIO TITLE "Anniversary Song" PERFORMER "Django Reinhardt" INDEX 00 02:43:06FILE "05. Anniversary Song.flac" WAVE INDEX 01 00:00:00 TRACK 06 AUDIO TITLE "Swing 48" PERFORMER "Django Reinhardt" INDEX 00 03:30:40FILE "06. Swing 48.flac" WAVE INDEX 01 00:00:00 TRACK 07 AUDIO TITLE "Django's Blues" PERFORMER "Django Reinhardt" INDEX 00 02:44:58FILE "07. Django's Blues.flac" WAVE INDEX 01 00:00:00 TRACK 08 AUDIO TITLE "Mano" PERFORMER "Django Reinhardt" INDEX 00 03:03:03FILE "08. Mano.flac" WAVE INDEX 01 00:00:00 TRACK 09 AUDIO TITLE "Blues Primitif" PERFORMER "Django Reinhardt" INDEX 00 02:51:10FILE "09. Blues Primitif.flac" WAVE INDEX 01 00:00:00 TRACK 10 AUDIO TITLE "Blues Clair" PERFORMER "Django Reinhardt" INDEX 00 02:40:66FILE "10. Blues Clair.flac" WAVE INDEX 01 00:00:00 TRACK 11 AUDIO TITLE "Danse Norvegienne" PERFORMER "Django Reinhardt" INDEX 00 02:42:22FILE "11. Danse Norvegienne.flac" WAVE INDEX 01 00:00:00 TRACK 12 AUDIO TITLE "Blues For Barclay (Take 1)" PERFORMER "Django Reinhardt" INDEX 00 02:58:27FILE "12. Blues For Barclay (Take 1).flac" WAVE INDEX 01 00:00:00 TRACK 13 AUDIO TITLE "I'll Never Smile Again (Take 2)" PERFORMER "Django Reinhardt" INDEX 00 02:58:52FILE "13. I'll Never Smile Again (Take 2).flac" WAVE INDEX 01 00:00:00 TRACK 14 AUDIO TITLE "Confessin'" PERFORMER "Django Reinhardt" INDEX 00 02:42:57FILE "14. Confessin'.flac" WAVE INDEX 01 00:00:00 TRACK 15 AUDIO TITLE "Night And Day" PERFORMER "Django Reinhardt" INDEX 00 02:53:74FILE "15. Night And Day.flac" WAVE INDEX 01 00:00:00 TRACK 16 AUDIO TITLE "Swingtime In Springtime" PERFORMER "Django Reinhardt" INDEX 00 02:52:36FILE "16. Swingtime In Springtime.flac" WAVE INDEX 01 00:00:00 TRACK 17 AUDIO TITLE "Blues En Mineur" PERFORMER "Django Reinhardt" INDEX 00 03:06:65FILE "17. Blues En Mineur.flac" WAVE INDEX 01 00:00:00 TRACK 18 AUDIO TITLE "Manor De Mes Reves" PERFORMER "Django Reinhardt" INDEX 00 03:27:10FILE "18. Manor De Mes Reves.flac" WAVE INDEX 01 00:00:00 TRACK 19 AUDIO TITLE "Babik" PERFORMER "Django Reinhardt" INDEX 00 03:46:66FILE "19. Babik.flac" WAVE INDEX 01 00:00:00 TRACK 20 AUDIO TITLE "Swing 39" PERFORMER "Django Reinhardt" INDEX 00 02:03:16FILE "20. Swing 39.flac" WAVE INDEX 01 00:00:00
  
Exact Audio Copy V0.99 prebeta 5 from 4. May 2009

EAC extraction logfile from 18. October 2009, 18:21

Django Reinhardt / Memorial (Disc 2)

Used drive : PLEXTOR DVDR PX-760A Adapter: 0 ID: 0

Read mode : SecureUtilize accurate stream : YesDefeat audio cache : YesMake use of C2 pointers : No

Read offset correction : 30Overread into Lead-In and Lead-Out : NoFill up missing offset samples with silence : YesDelete leading and trailing silent blocks : NoNull samples used in CRC calculations : YesUsed interface : Native Win32 interface for Win NT & 2000Gap handling : Appended to previous track

Used output format : Internal WAV RoutinesSample format : 44.100 Hz; 16 Bit; Stereo

TOC of the extracted CD

Track | Start | Length | Start sector | End sector --------------------------------------------------------- 1 | 0:00.00 | 3:16.27 | 0 | 14726 2 | 3:16.27 | 2:19.21 | 14727 | 25172 3 | 5:35.48 | 2:53.13 | 25173 | 38160 4 | 8:28.61 | 2:51.16 | 38161 | 51001 5 | 11:20.02 | 3:11.12 | 51002 | 65338 6 | 14:31.14 | 4:15.68 | 65339 | 84531 7 | 18:47.07 | 2:15.49 | 84532 | 94705 8 | 21:02.56 | 3:19.46 | 94706 | 109676 9 | 24:22.27 | 3:19.02 | 109677 | 124603 10 | 27:41.29 | 3:20.21 | 124604 | 139624 11 | 31:01.50 | 1:59.41 | 139625 | 148590 12 | 33:01.16 | 3:02.23 | 148591 | 162263 13 | 36:03.39 | 3:59.10 | 162264 | 180198 14 | 40:02.49 | 3:22.19 | 180199 | 195367 15 | 43:24.68 | 2:52.21 | 195368 | 208288 16 | 46:17.14 | 3:02.26 | 208289 | 221964 17 | 49:19.40 | 2:34.08 | 221965 | 233522 18 | 51:53.48 | 2:21.38 | 233523 | 244135 19 | 54:15.11 | 3:48.26 | 244136 | 261261

Track 1

Filename L:\Torrents\Django Reinhardt - Memorial (1953) [FLAC] (2006 Empire Musicwerks)\Disc 2\01 - Melodie au Crepuscule.wav

Pre-gap length 0:00:02.00

Peak level 99.8 % Track quality 100.0 % Test CRC 15B0F9CC Copy CRC 15B0F9CC Track not present in AccurateRip database Copy OK

Track 2

Filename L:\Torrents\Django Reinhardt - Memorial (1953) [FLAC] (2006 Empire Musicwerks)\Disc 2\02 - Feerie.wav

Pre-gap length 0:00:02.00

Peak level 99.8 % Track quality 100.0 % Test CRC F635DB6F Copy CRC F635DB6F Track not present in AccurateRip database Copy OK

Track 3

Filename L:\Torrents\Django Reinhardt - Memorial (1953) [FLAC] (2006 Empire Musicwerks)\Disc 2\03 - Dinettte.wav

Pre-gap length 0:00:02.00

Peak level 99.8 % Track quality 100.0 % Test CRC 872F140E Copy CRC 872F140E Track not present in AccurateRip database Copy OK

Track 4

Filename L:\Torrents\Django Reinhardt - Memorial (1953) [FLAC] (2006 Empire Musicwerks)\Disc 2\04 - Minor Swing.wav

Pre-gap length 0:00:02.00

Peak level 99.8 % Track quality 100.0 % Test CRC AA626CFA Copy CRC AA626CFA Track not present in AccurateRip database Copy OK

Track 5

Filename L:\Torrents\Django Reinhardt - Memorial (1953) [FLAC] (2006 Empire Musicwerks)\Disc 2\05 - Swing 40.wav

Pre-gap length 0:00:02.00

Peak level 99.8 % Track quality 100.0 % Test CRC 4199F054 Copy CRC 4199F054 Track not present in AccurateRip database Copy OK

Track 6

Filename L:\Torrents\Django Reinhardt - Memorial (1953) [FLAC] (2006 Empire Musicwerks)\Disc 2\06 - Artillerie Lourde.wav

Pre-gap length 0:00:02.00

Peak level 99.8 % Track quality 100.0 % Test CRC 153408B3 Copy CRC 153408B3 Track not present in AccurateRip database Copy OK

Track 7

Filename L:\Torrents\Django Reinhardt - Memorial (1953) [FLAC] (2006 Empire Musicwerks)\Disc 2\07 - Peche a la Mouche.wav

Pre-gap length 0:00:02.00

Peak level 92.8 % Track quality 100.0 % Test CRC 8B45523B Copy CRC 8B45523B Track not present in AccurateRip database Copy OK

Track 8

Filename L:\Torrents\Django Reinhardt - Memorial (1953) [FLAC] (2006 Empire Musicwerks)\Disc 2\08 - Stockholm.wav

Pre-gap length 0:00:02.00

Peak level 99.8 % Track quality 100.0 % Test CRC 70BE4F6E Copy CRC 70BE4F6E Track not present in AccurateRip database Copy OK

Track 9

Filename L:\Torrents\Django Reinhardt - Memorial (1953) [FLAC] (2006 Empire Musicwerks)\Disc 2\09 - Nuages.wav

Pre-gap length 0:00:02.00

Peak level 99.8 % Track quality 100.0 % Test CRC EB77BB48 Copy CRC EB77BB48 Track not present in AccurateRip database Copy OK

Track 10

Filename L:\Torrents\Django Reinhardt - Memorial (1953) [FLAC] (2006 Empire Musicwerks)\Disc 2\10 - Del Salle.wav

Pre-gap length 0:00:02.00

Peak level 99.8 % Track quality 100.0 % Test CRC D3F194F5 Copy CRC D3F194F5 Track not present in AccurateRip database Copy OK

Track 11

Filename L:\Torrents\Django Reinhardt - Memorial (1953) [FLAC] (2006 Empire Musicwerks)\Disc 2\11 - Vendredi 13.wav

Pre-gap length 0:00:02.00

Peak level 99.8 % Track quality 99.9 % Test CRC 259598A9 Copy CRC 259598A9 Track not present in AccurateRip database Copy OK

Track 12

Filename L:\Torrents\Django Reinhardt - Memorial (1953) [FLAC] (2006 Empire Musicwerks)\Disc 2\12 - Sweet Chorus.wav

Pre-gap length 0:00:02.00

Peak level 99.8 % Track quality 99.9 % Test CRC 75DCE7F9 Copy CRC 75DCE7F9 Track not present in AccurateRip database Copy OK

Track 13

Filename L:\Torrents\Django Reinhardt - Memorial (1953) [FLAC] (2006 Empire Musicwerks)\Disc 2\13 - Crepuscule.wav

Pre-gap length 0:00:02.00

Peak level 99.8 % Track quality 100.0 % Test CRC F7AFFE82 Copy CRC F7AFFE82 Track not present in AccurateRip database Copy OK

Track 14

Filename L:\Torrents\Django Reinhardt - Memorial (1953) [FLAC] (2006 Empire Musicwerks)\Disc 2\14 - Song d'Automne.wav

Pre-gap length 0:00:02.00

Peak level 99.8 % Track quality 100.0 % Test CRC 42E89751 Copy CRC 42E89751 Track not present in AccurateRip database Copy OK

Track 15

Filename L:\Torrents\Django Reinhardt - Memorial (1953) [FLAC] (2006 Empire Musicwerks)\Disc 2\15 - Folie a Amphion.wav

Pre-gap length 0:00:02.00

Peak level 99.8 % Track quality 100.0 % Test CRC 06C9CFF2 Copy CRC 06C9CFF2 Track not present in AccurateRip database Copy OK

Track 16

Filename L:\Torrents\Django Reinhardt - Memorial (1953) [FLAC] (2006 Empire Musicwerks)\Disc 2\16 - Swing Guitars.wav

Pre-gap length 0:00:02.00

Peak level 99.8 % Track quality 100.0 % Test CRC EE788E35 Copy CRC EE788E35 Track not present in AccurateRip database Copy OK

Track 17

Filename L:\Torrents\Django Reinhardt - Memorial (1953) [FLAC] (2006 Empire Musicwerks)\Disc 2\17 - Belleville.wav

Pre-gap length 0:00:02.00

Peak level 99.8 % Track quality 100.0 % Test CRC FD1F32C8 Copy CRC FD1F32C8 Track not present in AccurateRip database Copy OK

Track 18

Filename L:\Torrents\Django Reinhardt - Memorial (1953) [FLAC] (2006 Empire Musicwerks)\Disc 2\18 - Douce Ambiance.wav

Pre-gap length 0:00:02.00

Peak level 99.8 % Track quality 100.0 % Test CRC 8FBCBFDA Copy CRC 8FBCBFDA Track not present in AccurateRip database Copy OK

Track 19

Filename L:\Torrents\Django Reinhardt - Memorial (1953) [FLAC] (2006 Empire Musicwerks)\Disc 2\19 - Swing de Paris.wav

Pre-gap length 0:00:02.00

Peak level 99.8 % Track quality 100.0 % Test CRC F2A83B7C Copy CRC F2A83B7C Track not present in AccurateRip database Copy OK

None of the tracks are present in the AccurateRip database

No errors occurred

End of status report
  
REM GENRE JazzREM DATE 2006REM DISCID 160D9B13REM COMMENT "ExactAudioCopy v0.99pb5"PERFORMER "Django Reinhardt"TITLE "Memorial (disc 2)"FILE "01. Melodie Au Crepuscule.flac" WAVE TRACK 01 AUDIO TITLE "Melodie Au Crepuscule" PERFORMER "Django Reinhardt" INDEX 01 00:00:00 TRACK 02 AUDIO TITLE "Feerie" PERFORMER "Django Reinhardt" INDEX 00 03:14:27FILE "02. Feerie.flac" WAVE INDEX 01 00:00:00 TRACK 03 AUDIO TITLE "Dinette" PERFORMER "Django Reinhardt" INDEX 00 02:17:21FILE "03. Dinette.flac" WAVE INDEX 01 00:00:00 TRACK 04 AUDIO TITLE "Minor Swing" PERFORMER "Django Reinhardt" INDEX 00 02:51:13FILE "04. Minor Swing.flac" WAVE INDEX 01 00:00:00 TRACK 05 AUDIO TITLE "Swing 41" PERFORMER "Django Reinhardt" INDEX 00 02:49:16FILE "05. Swing 41.flac" WAVE INDEX 01 00:00:00 TRACK 06 AUDIO TITLE "Artillerie Lourde" PERFORMER "Django Reinhardt" INDEX 00 03:09:12FILE "06. Artillerie Lourde.flac" WAVE INDEX 01 00:00:00 TRACK 07 AUDIO TITLE "Peche A La Mouche" PERFORMER "Django Reinhardt" INDEX 00 04:13:68FILE "07. Peche A La Mouche.flac" WAVE INDEX 01 00:00:00 TRACK 08 AUDIO TITLE "Stockholm" PERFORMER "Django Reinhardt" INDEX 00 02:13:49FILE "08. Stockholm.flac" WAVE INDEX 01 00:00:00 TRACK 09 AUDIO TITLE "Nuages" PERFORMER "Django Reinhardt" INDEX 00 03:17:46FILE "09. Nuages.flac" WAVE INDEX 01 00:00:00 TRACK 10 AUDIO TITLE "Del Salle" PERFORMER "Django Reinhardt" INDEX 00 03:17:02FILE "10. Del Salle.flac" WAVE INDEX 01 00:00:00 TRACK 11 AUDIO TITLE "Vendredi 13" PERFORMER "Django Reinhardt" INDEX 00 03:18:21FILE "11. Vendredi 13.flac" WAVE INDEX 01 00:00:00 TRACK 12 AUDIO TITLE "Sweet Chorus" PERFORMER "Django Reinhardt" INDEX 00 01:57:41FILE "12. Sweet Chorus.flac" WAVE INDEX 01 00:00:00 TRACK 13 AUDIO TITLE "Crepuscule" PERFORMER "Django Reinhardt" INDEX 00 03:00:23FILE "13. Crepuscule.flac" WAVE INDEX 01 00:00:00 TRACK 14 AUDIO TITLE "Song D'Automne" PERFORMER "Django Reinhardt" INDEX 00 03:57:10FILE "14. Song D'Automne.flac" WAVE INDEX 01 00:00:00 TRACK 15 AUDIO TITLE "Folie A Amphion" PERFORMER "Django Reinhardt" INDEX 00 03:20:19FILE "15. Folie A Amphion.flac" WAVE INDEX 01 00:00:00 TRACK 16 AUDIO TITLE "Swing Guitars" PERFORMER "Django Reinhardt" INDEX 00 02:50:21FILE "16. Swing Guitars.flac" WAVE INDEX 01 00:00:00 TRACK 17 AUDIO TITLE "Belleville" PERFORMER "Django Reinhardt" INDEX 00 03:00:26FILE "17. Belleville.flac" WAVE INDEX 01 00:00:00 TRACK 18 AUDIO TITLE "Douce Ambiance" PERFORMER "Django Reinhardt" INDEX 00 02:32:08FILE "18. Douce Ambiance.flac" WAVE INDEX 01 00:00:00 TRACK 19 AUDIO TITLE "Swing De Paris" PERFORMER "Django Reinhardt" INDEX 00 02:19:38FILE "19. Swing De Paris.flac" WAVE INDEX 01 00:00:00


Трекер:  [ 22-Фев-2012 15:05 ]

  

Скачать .torrent

Размер .torrent файла 15 KB


Размер: 275 MB
Хэш (hash) релиза: e09523e2f4ff19880e38b32916927a36f92ec59a

Еще никто не оставлял запись к записи скачать торрент Django Reinhardt - Memorial . Будь первым!

!Обратная связь