Скачать через торрент музыку Tiny Parham And His Musicians - 1929-1940 {The Chronological Classics, 691} - 1993, FLAC бесплатно без регистрации torrent

Если у вас наблюдаются проблемы со скриншотами, переходом по ссылками, скачиванием торрентов - проблемы в блокировщике рекламы AdBlock. #хорошегоДня!


Статистика раздачи
Размер:  232 MB   |    Зарегистрирован:  5 лет 7 месяцев   |    .torrent скачан:  32 раза   |   
Раздают:  1  
   
Загрузка...
 
Автор Сообщение

Umakiro

avatar Umakiro


Tiny Parham And His Musicians – 1929-1940 {The Chronological Classics, 691}

Жанр: Swing, New Orleans Jazz
Год издания диска: 1993
Издатель (лейбл): Classics
Номер по каталогу: 691
Аудиокодек: FLAC (*.flac)
Тип рипа: tracks+.cue
Битрейт аудио: lossless
Продолжительность: 68:44
Источник: вата
Наличие сканов в содержимом раздачи: да

Треклист:
01. Pig's Feet And Slaw (2:59)
02. Bombay (3:26)
03. Fat Man Blues (2:40)
04. Golden Lily (3:18)
05. Steel String Blues (2:42)
06. Sud Buster's Dream (3:00)
07. Dixieland Doin's (2:47)
08. Cathedral Blues (3:15)
09. Black Cat Moan (3:27)
10. Doin' The Jug-Jug (3:15)
11. Rock Bottom (2:57)
12. Down Yonder (2:43)
13. Blue Moon Blues (3:36)
14. Squeeze Me (2:32)
15. Back To The Jungle (3:15)
16. Nervous Tension (2:41)
17. Memphis Mamie (2:55)
18. Now That I've Found You (3:12)
19. My Dreams (3:12)
20. After All I've Done For You (2:42)
21. Frogtown Blues (2:40)
22. Moving Day (2:58)
23. Spo-Dee-O-Dee (2:33)
  
EAC extraction logfile from 29. October 2007, 12:22 for CDTiny Parham / 1929-1940

Used drive : HL-DT-STCDRW/DVD GCC4482 Adapter: 1 ID: 0Read mode : Secure with NO C2, accurate stream, disable cacheRead offset correction : 6Overread into Lead-In and Lead-Out : No

Used output format : C:\Eac\Codecs\flac.exe (User Defined Encoder) 320 kBit/s Additional command line options : -8 -V -T "artist=%a" -T "title=%t" -T "album=%g" -T "date=%y" -T "tracknumber=%n" -T "genre=%m" -T "comment=EAC Flac 1.1.2 -8" %s

Other options : Fill up missing offset samples with silence : Yes Delete leading and trailing silent blocks : No Installed external ASPI interface

Track 1 Filename C:\Documents and Settings\tiny\01 - Pig's Feet and Slaw.wav

Pre-gap length 0:00:02.44

Peak level 90.5 % Track quality 100.0 % Test CRC 29755A95 Copy CRC 29755A95 Copy OK

Track 2 Filename C:\Documents and Settings\tiny\02 - Bombay.wav

Pre-gap length 0:00:00.84

Peak level 99.8 % Track quality 100.0 % Test CRC 1C7F7D46 Copy CRC 1C7F7D46 Copy OK

Track 3 Filename C:\Documents and Settings\tiny\03 - Fat Man Blues.wav

Pre-gap length 0:00:01.30

Peak level 99.9 % Track quality 100.0 % Test CRC 0190AE0C Copy CRC 0190AE0C Copy OK

Track 4 Filename C:\Documents and Settings\tiny\04 - Golden Lily.wav

Pre-gap length 0:00:01.37

Peak level 96.9 % Track quality 99.9 % Test CRC 1BD0175B Copy CRC 1BD0175B Copy OK

Track 5 Filename C:\Documents and Settings\tiny\05 - Steel String Blues.wav

Pre-gap length 0:00:01.33

Peak level 99.5 % Track quality 99.9 % Test CRC 3577B547 Copy CRC 3577B547 Copy OK

Track 6 Filename C:\Documents and Settings\tiny\06 - Sud Buster's Dream.wav

Pre-gap length 0:00:01.09

Peak level 58.1 % Track quality 100.0 % Test CRC FD3523A4 Copy CRC FD3523A4 Copy OK

Track 7 Filename C:\Documents and Settings\tiny\07 - Dixieland Doin's.wav

Pre-gap length 0:00:01.20

Peak level 79.1 % Track quality 100.0 % Test CRC D8889F2D Copy CRC D8889F2D Copy OK

Track 8 Filename C:\Documents and Settings\tiny\08 - Cathedral Blues.wav

Pre-gap length 0:00:00.70

Peak level 68.0 % Track quality 100.0 % Test CRC 871BE3B4 Copy CRC 871BE3B4 Copy OK

Track 9 Filename C:\Documents and Settings\tiny\09 - Black Cat Moan.wav

Pre-gap length 0:00:01.30

Peak level 60.1 % Track quality 100.0 % Test CRC 73291CBE Copy CRC 73291CBE Copy OK

Track 10 Filename C:\Documents and Settings\tiny\10 - Doin' The Jug-Jug.wav

Pre-gap length 0:00:01.02

Peak level 86.1 % Track quality 100.0 % Test CRC 78583EA8 Copy CRC 78583EA8 Copy OK

Track 11 Filename C:\Documents and Settings\tiny\11 - Rock Bottom.wav

Pre-gap length 0:00:01.20

Peak level 99.9 % Track quality 100.0 % Test CRC 6ACE6A3E Copy CRC 6ACE6A3E Copy OK

Track 12 Filename C:\Documents and Settings\tiny\12 - Down Yonder.wav

Pre-gap length 0:00:01.33

Peak level 91.3 % Track quality 99.9 % Test CRC 5EDD0F9D Copy CRC 5EDD0F9D Copy OK

Track 13 Filename C:\Documents and Settings\tiny\13 - Blue Moon Blues.wav

Pre-gap length 0:00:01.37

Peak level 81.8 % Track quality 100.0 % Test CRC 81EE6BE6 Copy CRC 81EE6BE6 Copy OK

Track 14 Filename C:\Documents and Settings\tiny\14 - Squeeze Me.wav

Pre-gap length 0:00:01.24

Peak level 87.2 % Track quality 100.0 % Test CRC E720A932 Copy CRC E720A932 Copy OK

Track 15 Filename C:\Documents and Settings\tiny\15 - Back To The Jungle.wav

Pre-gap length 0:00:01.42

Peak level 85.1 % Track quality 100.0 % Test CRC 939C172C Copy CRC 939C172C Copy OK

Track 16 Filename C:\Documents and Settings\tiny\16 - Nervous Tension.wav

Pre-gap length 0:00:01.37

Peak level 89.5 % Track quality 100.0 % Test CRC 08F21D9C Copy CRC 08F21D9C Copy OK

Track 17 Filename C:\Documents and Settings\tiny\17 - Memphis Mamie.wav

Pre-gap length 0:00:01.04

Peak level 80.9 % Track quality 100.0 % Test CRC 67AB2787 Copy CRC 67AB2787 Copy OK

Track 18 Filename C:\Documents and Settings\tiny\18 - Now That I've Found You.wav

Pre-gap length 0:00:01.40

Peak level 90.3 % Track quality 100.0 % Test CRC 867E6923 Copy CRC 867E6923 Copy OK

Track 19 Filename C:\Documents and Settings\tiny\19 - My Dreams.wav

Pre-gap length 0:00:01.16

Peak level 73.5 % Track quality 100.0 % Test CRC 9901B046 Copy CRC 9901B046 Copy OK

Track 20 Filename C:\Documents and Settings\tiny\20 - After All I've Done For You.wav

Pre-gap length 0:00:01.20

Peak level 91.4 % Track quality 100.0 % Test CRC EDE2772C Copy CRC EDE2772C Copy OK

Track 21 Filename C:\Documents and Settings\tiny\21 - Frogtown Blues.wav

Pre-gap length 0:00:00.82

Peak level 48.9 % Track quality 100.0 % Test CRC C3430668 Copy CRC C3430668 Copy OK

Track 22 Filename C:\Documents and Settings\tiny\22 - Moving Day.wav

Pre-gap length 0:00:01.29

Peak level 75.4 % Track quality 100.0 % Test CRC 5D3C9C06 Copy CRC 5D3C9C06 Copy OK

Track 23 Filename C:\Documents and Settings\tiny\23 - Spo-Dee-O-Dee.wav

Pre-gap length 0:00:01.06

Peak level 80.6 % Track quality 100.0 % Test CRC 5CEA9D27 Copy CRC 5CEA9D27 Copy OK

No errors occured

End of status report
  
REM DATE 1993REM GENRE JazzREM DISCID 6B101C17REM COMMENT "ExactAudioCopy v0.95b4"PERFORMER "Tiny Parham And His Musicians"TITLE "1929-1940 {Chronological Classics, 691}"FILE "01. Pig's Feet And Slaw.flac" WAVE TRACK 01 AUDIO TITLE "Pig's Feet And Slaw" PERFORMER "Tiny Parham And His Musicians" PREGAP 00:00:33 INDEX 01 00:00:00 TRACK 02 AUDIO TITLE "Bombay" PERFORMER "Tiny Parham And His Musicians" INDEX 00 02:58:12FILE "02. Bombay.flac" WAVE INDEX 01 00:00:00 TRACK 03 AUDIO TITLE "Fat Man Blues" PERFORMER "Tiny Parham And His Musicians" INDEX 00 03:24:27FILE "03. Fat Man Blues.flac" WAVE INDEX 01 00:00:00 TRACK 04 AUDIO TITLE "Golden Lily" PERFORMER "Tiny Parham And His Musicians" INDEX 00 02:38:42FILE "04. Golden Lily.flac" WAVE INDEX 01 00:00:00 TRACK 05 AUDIO TITLE "Steel String Blues" PERFORMER "Tiny Parham And His Musicians" INDEX 00 03:16:65FILE "05. Steel String Blues.flac" WAVE INDEX 01 00:00:00 TRACK 06 AUDIO TITLE "Sud Buster's Dream" PERFORMER "Tiny Parham And His Musicians" INDEX 00 02:40:45FILE "06. Sud Buster's Dream.flac" WAVE INDEX 01 00:00:00 TRACK 07 AUDIO TITLE "Dixieland Doin's" PERFORMER "Tiny Parham And His Musicians" INDEX 00 02:58:73FILE "07. Dixieland Doin's.flac" WAVE INDEX 01 00:00:00 TRACK 08 AUDIO TITLE "Cathedral Blues" PERFORMER "Tiny Parham And His Musicians" INDEX 00 02:46:02FILE "08. Cathedral Blues.flac" WAVE INDEX 01 00:00:00 TRACK 09 AUDIO TITLE "Black Cat Moan" PERFORMER "Tiny Parham And His Musicians" INDEX 00 03:14:07FILE "09. Black Cat Moan.flac" WAVE INDEX 01 00:00:00 TRACK 10 AUDIO TITLE "Doin' The Jug-Jug" PERFORMER "Tiny Parham And His Musicians" INDEX 00 03:26:35FILE "10. Doin' The Jug-Jug.flac" WAVE INDEX 01 00:00:00 TRACK 11 AUDIO TITLE "Rock Bottom" PERFORMER "Tiny Parham And His Musicians" INDEX 00 03:14:00FILE "11. Rock Bottom.flac" WAVE INDEX 01 00:00:00 TRACK 12 AUDIO TITLE "Down Yonder" PERFORMER "Tiny Parham And His Musicians" INDEX 00 02:56:03FILE "12. Down Yonder.flac" WAVE INDEX 01 00:00:00 TRACK 13 AUDIO TITLE "Blue Moon Blues" PERFORMER "Tiny Parham And His Musicians" INDEX 00 02:41:22FILE "13. Blue Moon Blues.flac" WAVE INDEX 01 00:00:00 TRACK 14 AUDIO TITLE "Squeeze Me" PERFORMER "Tiny Parham And His Musicians" INDEX 00 03:34:47FILE "14. Squeeze Me.flac" WAVE INDEX 01 00:00:00 TRACK 15 AUDIO TITLE "Back To The Jungle" PERFORMER "Tiny Parham And His Musicians" INDEX 00 02:30:15FILE "15. Back To The Jungle.flac" WAVE INDEX 01 00:00:00 TRACK 16 AUDIO TITLE "Nervous Tension" PERFORMER "Tiny Parham And His Musicians" INDEX 00 03:13:25FILE "16. Nervous Tension.flac" WAVE INDEX 01 00:00:00 TRACK 17 AUDIO TITLE "Memphis Mamie" PERFORMER "Tiny Parham And His Musicians" INDEX 00 02:39:37FILE "17. Memphis Mamie.flac" WAVE INDEX 01 00:00:00 TRACK 18 AUDIO TITLE "Now That I've Found You" PERFORMER "Tiny Parham And His Musicians" INDEX 00 02:53:50FILE "18. Now That I've Found You.flac" WAVE INDEX 01 00:00:00 TRACK 19 AUDIO TITLE "My Dreams" PERFORMER "Tiny Parham And His Musicians" INDEX 00 03:10:50FILE "19. My Dreams.flac" WAVE INDEX 01 00:00:00 TRACK 20 AUDIO TITLE "After All I've Done For You" PERFORMER "Tiny Parham And His Musicians" INDEX 00 03:10:33FILE "20. After All I've Done For You.flac" WAVE INDEX 01 00:00:00 TRACK 21 AUDIO TITLE "Frogtown Blues" PERFORMER "Tiny Parham And His Musicians" INDEX 00 02:41:50FILE "21. Frogtown Blues.flac" WAVE INDEX 01 00:00:00 TRACK 22 AUDIO TITLE "Moving Day" PERFORMER "Tiny Parham And His Musicians" INDEX 00 02:38:23FILE "22. Moving Day.flac" WAVE INDEX 01 00:00:00 TRACK 23 AUDIO TITLE "Spo-Dee-O-Dee" PERFORMER "Tiny Parham And His Musicians" INDEX 00 02:56:33FILE "23. Spo-Dee-O-Dee.flac" WAVE INDEX 01 00:00:00
  
[CUETools log; Date: 21.02.2012 22:57:05; Version: 2.0.9]Pregap length 00:00:33.[CTDB TOCID: MFXC1g3fuRzu6ST1cSaB7BDwbnE-] disk not present in database.[AccurateRip ID: 003982a1-03bce6e6-6b101c17] found.Track [ CRC ] Status 01 [6fb53e76] (2/2) Accurately ripped 02 [93c7cbdb] (2/2) Accurately ripped 03 [d5c9ba78] (2/2) Accurately ripped 04 [90e60f60] (2/2) Accurately ripped 05 [587be062] (2/2) Accurately ripped 06 [adeda40d] (2/2) Accurately ripped 07 [7da80458] (2/2) Accurately ripped 08 [c14a03fd] (2/2) Accurately ripped 09 [a1c6d804] (2/2) Accurately ripped 10 [8878b1a0] (2/2) Accurately ripped 11 [aba44614] (2/2) Accurately ripped 12 [53676f67] (2/2) Accurately ripped 13 [2152aace] (2/2) Accurately ripped 14 [007e79ef] (2/2) Accurately ripped 15 [b4196f07] (2/2) Accurately ripped 16 [63da6e17] (2/2) Accurately ripped 17 [4d9d5c67] (2/2) Accurately ripped 18 [f6531d47] (2/2) Accurately ripped 19 [cf93cd18] (2/2) Accurately ripped 20 [96463ae5] (2/2) Accurately ripped 21 [57efbaa9] (2/2) Accurately ripped 22 [3eb67283] (2/2) Accurately ripped 23 [b7d3c19c] (2/2) Accurately ripped

Track Peak [ CRC32 ] [W/O NULL] [ LOG ] -- 99,9 [34F3C030] [1D376B1A] 01 90,5 [29755A95] [1F4B8747] CRC32 02 99,8 [1C7F7D46] [D82E66D1] CRC32 03 99,9 [0190AE0C] [96141AB2] CRC32 04 96,9 [1BD0175B] [EEF7C8DD] CRC32 05 99,5 [3577B547] [2B95B24B] CRC32 06 58,1 [FD3523A4] [F86560B2] CRC32 07 79,1 [D8889F2D] [F4218A74] CRC32 08 68,0 [871BE3B4] [A1E34ECD] CRC32 09 60,1 [73291CBE] [0D3FC38F] CRC32 10 86,1 [78583EA8] [4289C950] CRC32 11 99,9 [6ACE6A3E] [CEDC933B] CRC32 12 91,3 [5EDD0F9D] [D9598291] CRC32 13 81,8 [81EE6BE6] [6957C430] CRC32 14 87,2 [E720A932] [0B791C24] CRC32 15 85,1 [939C172C] [06BC0A7C] CRC32 16 89,5 [08F21D9C] [FC7FA7C4] CRC32 17 80,9 [67AB2787] [51A66003] CRC32 18 90,3 [867E6923] [66B6D799] CRC32 19 73,5 [9901B046] [C2140FEB] CRC32 20 91,4 [EDE2772C] [039D16B5] CRC32 21 48,9 [C3430668] [AE0800D9] CRC32 22 75,4 [5D3C9C06] [37185074] CRC32 23 80,6 [5CEA9D27] [F734D7F9] CRC32



Трекер:  [ 22-Фев-2012 15:04 ]

  

Скачать .torrent

Размер .torrent файла 20 KB


Размер: 232 MB
Хэш (hash) релиза: f1f2ff898d13d40031fae655e93ea1a46baa8d57

Еще никто не оставлял запись к записи скачать торрент Tiny Parham And His Musicians - 1929-1940 {The Chronological Classics, 691} - 1993, FLAC . Будь первым!

!Обратная связь