Скачать через торрент музыку Midnight Serenaders - Дискография бесплатно без регистрации torrent

Если у вас наблюдаются проблемы со скриншотами, переходом по ссылками, скачиванием торрентов - проблемы в блокировщике рекламы AdBlock. #хорошегоДня!


Статистика раздачи
Размер:  961 MB   |    Зарегистрирован:  5 лет 7 месяцев   |    .torrent скачан:  37 раз   |   
Раздают:  1  
   
Загрузка...
 
Автор Сообщение

Umakiro

avatar Umakiro


Midnight Serenaders

Дискография (3 Альбома)


Жанр: Swing, Retro Swing, Big Band
Страна-производитель диска: USA
Год издания диска: 2007-2011
Аудио кодек: FLAC (*.flac)
Тип рипа: image+.cue
Битрейт аудио: lossless
Продолжительность: 59:31+54:44+1:03:01
Источник (релизер): ©СЁРФ-Маrаtones aka izia1956
Наличие сканов в содержимом раздачи: да
Треклист:
01. (Lookie Lookie Lookie) Here Comes Cookie (3:13)
02. A Porter's Love Song to a Chambermaid (4:40)
03. How'm I Doin' (2:52)
04. I Must Have That Man (4:38)
05. What Makes Me Love You So (3:36)
06. My Carolina Sunshine Girl (2:59)
07. My Handyman (5:11)
08. Magnolia (3:35)
09. Sand (4:01)
10. The World's Jazz Crazy (3:16)
11. Lazybones (4:35)
12. You Got to Give Me Some (4:01)
13. Dirt Dishin' Daisy (5:04)
14. Six Feet of Papa (4:07)
15. Everybody Loves My Baby (3:36)
  
Exact Audio Copy V0.99 prebeta 4 from 23. January 2008

Отчёт EAC об извлечении, выполненном 28. мая 2011, 19:04

Midnight Serenaders / Magnolia

Дисковод: PLEXTOR DVDR PX-880SA Adapter: 1 ID: 1

Режим чтения : ДостоверностьИспользование точного потока : ДаОтключение кэша аудио : ДаИспользование указателей C2 : Нет

Коррекция смещения при чтении : 6Способность читать области Lead-in и Lead-out : НетЗаполнение пропущенных сэмплов тишиной : ДаУдаление блоков с тишиной в начале и конце : НетПри вычислениях CRC использовались нулевые сэмплы : ДаИнтерфейс : Встроенный Win32-интерфейс для Win NT/2000

Выходной формат : Пользовательский кодировщикВыбранный битрейт : 1024 kBit/sКачество : ВысокийДобавление ID3-тэга : НетУтилита сжатия : C:\Program Files\Exact Audio Copy\FLAC\FLAC.EXEДополнительные параметры : -6 -V -T "ARTIST=%a" -T "TITLE=%t" -T "ALBUM=%g" -T "DATE=%y" -T "TRACKNUMBER=%n" -T "GENRE=%m" -T "COMMENT=%e" %s -o %d

TOC извлечённого CD

Трек | Старт | Длительность | Начальный сектор | Конечный сектор --------------------------------------------------------------------- 1 | 0:00.00 | 3:13.64 | 0 | 14538 2 | 3:13.64 | 4:40.33 | 14539 | 35571 3 | 7:54.22 | 2:52.21 | 35572 | 48492 4 | 10:46.43 | 4:38.11 | 48493 | 69353 5 | 15:24.54 | 3:36.68 | 69354 | 85621 6 | 19:01.47 | 2:59.56 | 85622 | 99102 7 | 22:01.28 | 5:11.02 | 99103 | 122429 8 | 27:12.30 | 3:35.59 | 122430 | 138613 9 | 30:48.14 | 4:01.33 | 138614 | 156721 10 | 34:49.47 | 3:16.49 | 156722 | 171470 11 | 38:06.21 | 4:35.44 | 171471 | 192139 12 | 42:41.65 | 4:01.60 | 192140 | 210274 13 | 46:43.50 | 5:04.36 | 210275 | 233110 14 | 51:48.11 | 4:07.16 | 233111 | 251651 15 | 55:55.27 | 3:36.17 | 251652 | 267868

Характеристики диапазона извлечения и сообщения об ошибках

Выбранный диапазон

Имя файла J:\BitComet\Midnight Serenaders(flac)\2007 - Magnolia\Midnight Serenaders - Magnolia.wav

Пиковый уровень 96.6 % Качество диапазона 100.0 % CRC теста C656CB8B CRC копии C656CB8B Копирование... OK

Ошибок не произошло

AccurateRip: сводка

Трек 1 нет в базе данныхТрек 2 нет в базе данныхТрек 3 нет в базе данныхТрек 4 нет в базе данныхТрек 5 нет в базе данныхТрек 6 нет в базе данныхТрек 7 нет в базе данныхТрек 8 нет в базе данныхТрек 9 нет в базе данныхТрек 10 нет в базе данныхТрек 11 нет в базе данныхТрек 12 нет в базе данныхТрек 13 нет в базе данныхТрек 14 нет в базе данныхТрек 15 нет в базе данных

Ни одного трека нет в базе AccurateRip

Конец отчёта
01. I'm Crazy 'Bout My Baby (3:31)
02. Swing Brother Swing (2:42)
03. He's a Curbstone Cutie (2:47)
04. Pettin' in the Rain (4:05)
05. I Can't Dance I Got Ants in My Pants (3:22)
06. Sweet Nothin’s (3:14)
07. How'd Ya Do (3:18)
08. Diga Diga Do (3:25)
09. Daddy Won't You Please Come Home (4:05)
10. Who Walks in When I Walk Out (3:20)
11. Some of These Days (3:28)
12. Comes Love (5:29)
13. There'll Be Some Changes Made (4:33)
14. Down in Shangri-la (4:03)
15. Baby (Darlin') Baby (3:15)
  
Exact Audio Copy V0.99 prebeta 4 from 23. January 2008

Отчёт EAC об извлечении, выполненном 28. мая 2011, 17:55

Midnight Serenaders / Sweet Nothin's

Дисковод: PLEXTOR DVDR PX-880SA Adapter: 1 ID: 1

Режим чтения : ДостоверностьИспользование точного потока : ДаОтключение кэша аудио : ДаИспользование указателей C2 : Нет

Коррекция смещения при чтении : 6Способность читать области Lead-in и Lead-out : НетЗаполнение пропущенных сэмплов тишиной : ДаУдаление блоков с тишиной в начале и конце : НетПри вычислениях CRC использовались нулевые сэмплы : ДаИнтерфейс : Встроенный Win32-интерфейс для Win NT/2000

Выходной формат : Пользовательский кодировщикВыбранный битрейт : 1024 kBit/sКачество : ВысокийДобавление ID3-тэга : НетУтилита сжатия : C:\Program Files\Exact Audio Copy\FLAC\FLAC.EXEДополнительные параметры : -6 -V -T "ARTIST=%a" -T "TITLE=%t" -T "ALBUM=%g" -T "DATE=%y" -T "TRACKNUMBER=%n" -T "GENRE=%m" -T "COMMENT=%e" %s -o %d

TOC извлечённого CD

Трек | Старт | Длительность | Начальный сектор | Конечный сектор --------------------------------------------------------------------- 1 | 0:00.00 | 3:31.65 | 0 | 15889 2 | 3:31.65 | 2:42.12 | 15890 | 28051 3 | 6:14.02 | 2:47.14 | 28052 | 40590 4 | 9:01.16 | 4:05.26 | 40591 | 58991 5 | 13:06.42 | 3:22.59 | 58992 | 74200 6 | 16:29.26 | 3:14.19 | 74201 | 88769 7 | 19:43.45 | 3:18.38 | 88770 | 103657 8 | 23:02.08 | 3:25.42 | 103658 | 119074 9 | 26:27.50 | 4:05.15 | 119075 | 137464 10 | 30:32.65 | 3:20.46 | 137465 | 152510 11 | 33:53.36 | 3:28.47 | 152511 | 168157 12 | 37:22.08 | 5:29.62 | 168158 | 192894 13 | 42:51.70 | 4:33.21 | 192895 | 213390 14 | 47:25.16 | 4:03.35 | 213391 | 231650 15 | 51:28.51 | 3:15.33 | 231651 | 246308

Характеристики диапазона извлечения и сообщения об ошибках

Выбранный диапазон

Имя файла J:\BitComet\Midnight Serenaders(flac)\2009 - Sweet Nothin's\Midnight Serenaders - Sweet Nothin's.wav

Пиковый уровень 98.8 % Качество диапазона 99.9 % CRC теста D1AF12D8 CRC копии D1AF12D8 Копирование... OK

Ошибок не произошло

AccurateRip: сводка

Трек 1 точное извлечение (доверие 1) [FAB1EF95]Трек 2 точное извлечение (доверие 1) [DBED7C61]Трек 3 точное извлечение (доверие 1) [516FA0A6]Трек 4 точное извлечение (доверие 1) [640182F7]Трек 5 точное извлечение (доверие 1) [C992F918]Трек 6 точное извлечение (доверие 1) [D05A753F]Трек 7 точное извлечение (доверие 1) [41CCBBFF]Трек 8 точное извлечение (доверие 1) [330F8E77]Трек 9 точное извлечение (доверие 1) [741C6D76]Трек 10 точное извлечение (доверие 1) [7C42B5E0]Трек 11 точное извлечение (доверие 1) [100551FA]Трек 12 точное извлечение (доверие 1) [B0D3A74A]Трек 13 точное извлечение (доверие 1) [ECE6491D]Трек 14 точное извлечение (доверие 1) [6D2A5085]Трек 15 точное извлечение (доверие 1) [A3B234ED]

Все треки извлечены точно

Конец отчёта
01. My Honey's Lovin' Arms (3:57)
02. I've Got A Hankerin' (For Some Love) (4:19)
03. Victim of Love (4:43)
04. I'm Playing In Your Parlour Game (4:14)
05. Hot Lovin' (4:02)
06. Man-o-phile (3:28)
07. You're Barking Up the Right Tree (2:49)
08. You Don't Understand (3:59)
09. I'm Getting Sentimental Over You (3:52)
10. Swingin' On Nothin' (3:50)
11. Hawaiian War Chant (3:11)
12. That Ain't Right (3:56)
13. What A Pretty Miss (3:23)
14. Junk Man (4:39)
15. Mademoiselle (4:58)
16. It Don't Mean A Thing (If It Ain't Got That Swing) (3:33)
  
Exact Audio Copy V0.99 prebeta 4 from 23. January 2008

Отчёт EAC об извлечении, выполненном 28. мая 2011, 23:03

Midnight Serenaders / Hot Lovin'

Дисковод: PLEXTOR DVDR PX-880SA Adapter: 1 ID: 1

Режим чтения : ДостоверностьИспользование точного потока : ДаОтключение кэша аудио : ДаИспользование указателей C2 : Нет

Коррекция смещения при чтении : 6Способность читать области Lead-in и Lead-out : НетЗаполнение пропущенных сэмплов тишиной : ДаУдаление блоков с тишиной в начале и конце : НетПри вычислениях CRC использовались нулевые сэмплы : ДаИнтерфейс : Встроенный Win32-интерфейс для Win NT/2000

Выходной формат : Пользовательский кодировщикВыбранный битрейт : 1024 kBit/sКачество : ВысокийДобавление ID3-тэга : НетУтилита сжатия : C:\Program Files\Exact Audio Copy\FLAC\FLAC.EXEДополнительные параметры : -6 -V -T "ARTIST=%a" -T "TITLE=%t" -T "ALBUM=%g" -T "DATE=%y" -T "TRACKNUMBER=%n" -T "GENRE=%m" -T "COMMENT=%e" %s -o %d

TOC извлечённого CD

Трек | Старт | Длительность | Начальный сектор | Конечный сектор --------------------------------------------------------------------- 1 | 0:00.00 | 3:57.05 | 0 | 17779 2 | 3:57.05 | 4:19.19 | 17780 | 37223 3 | 8:16.24 | 4:43.40 | 37224 | 58488 4 | 12:59.64 | 4:14.56 | 58489 | 77594 5 | 17:14.45 | 4:02.50 | 77595 | 95794 6 | 21:17.20 | 3:28.51 | 95795 | 111445 7 | 24:45.71 | 2:49.57 | 111446 | 124177 8 | 27:35.53 | 3:59.53 | 124178 | 142155 9 | 31:35.31 | 3:52.23 | 142156 | 159578 10 | 35:27.54 | 3:50.48 | 159579 | 176876 11 | 39:18.27 | 3:11.59 | 176877 | 191260 12 | 42:30.11 | 3:56.08 | 191261 | 208968 13 | 46:26.19 | 3:23.15 | 208969 | 224208 14 | 49:49.34 | 4:39.17 | 224209 | 245150 15 | 54:28.51 | 4:58.45 | 245151 | 267545 16 | 59:27.21 | 3:33.66 | 267546 | 283586

Характеристики диапазона извлечения и сообщения об ошибках

Выбранный диапазон

Имя файла J:\BitComet\Midnight Serenaders(flac)\2011 - Hot Lovin'\Midnight Serenaders - Hot Lovin'.wav

Пиковый уровень 98.8 % Качество диапазона 100.0 % CRC теста 371747B9 CRC копии 371747B9 Копирование... OK

Ошибок не произошло

AccurateRip: сводка

Трек 1 нет в базе данныхТрек 2 нет в базе данныхТрек 3 нет в базе данныхТрек 4 нет в базе данныхТрек 5 нет в базе данныхТрек 6 нет в базе данныхТрек 7 нет в базе данныхТрек 8 нет в базе данныхТрек 9 нет в базе данныхТрек 10 нет в базе данныхТрек 11 нет в базе данныхТрек 12 нет в базе данныхТрек 13 нет в базе данныхТрек 14 нет в базе данныхТрек 15 нет в базе данныхТрек 16 нет в базе данных

Ни одного трека нет в базе AccurateRip

Конец отчёта


Трекер:  [ 22-Фев-2012 15:03 ]

  

Скачать .torrent

Размер .torrent файла 21 KB


Размер: 961 MB
Хэш (hash) релиза: f9e4c58272826fcebb5c04c90600ddeeff0d4ca8

Еще никто не оставлял запись к записи скачать торрент Midnight Serenaders - Дискография . Будь первым!

!Обратная связь