Скачать через торрент музыку The Pasadena Roof Orchestra - Breakaway - 1991, FLAC бесплатно без регистрации torrent

Если у вас наблюдаются проблемы со скриншотами, переходом по ссылками, скачиванием торрентов - проблемы в блокировщике рекламы AdBlock. #хорошегоДня!


Статистика раздачи
Размер:  293 MB   |    Зарегистрирован:  5 лет 8 месяцев   |    .torrent скачан:  50 раз   |   
Раздают:  1  
   
Загрузка...
 
Автор Сообщение

Umakiro

avatar Umakiro


The Pasadena Roof Orchestra
Breakaway

Жанр: Swing/ Big Band
Год издания диска: 1991
Страна: UK
Аудиокодек: FLAC (*.flac)
Тип рипа: tracks+.cue
Битрейт аудио: lossless
Продолжительность: 57:18
Источник (релизер): what.cd
Наличие сканов в содержимом раздачи: нет
01. Breakaway (3:20)
02. Jeepers Creepers (2:54)
03. Piccolo Pete (3:01)
04. The Very Thought of You (3:33)
05. The Continental (3:19)
06. Temptation Rag (3:28)
07. Sweet Georgia Brown (3:11)
08. Ain't Misbehavin' (5:02)
09. Play That Hot Guitar (3:03)
10. Rockin' Chair (3:45)
11. That's A Plenty (3:05)
12. Zing! Went the Strings of My Heart (2:55)
13. Tom Thumb's Drum (3:52)
14. Love Is Good for Anything That Ails You (3:10)
15. Stompin' at the Savoy (3:22)
16. Just One More Chance (3:41)
17. The Man From the South (2:39)



  
Exact Audio Copy V1.0 beta 2 from 29. April 2011

EAC extraction logfile from 2. January 2012, 16:20

Pasadena Roof Orchestra / Breakaway

Used drive : TSSTcorpCD/DVDW SH-S182M Adapter: 1 ID: 0

Read mode : SecureUtilize accurate stream : YesDefeat audio cache : YesMake use of C2 pointers : No

Read offset correction : 6Overread into Lead-In and Lead-Out : NoFill up missing offset samples with silence : YesDelete leading and trailing silent blocks : NoNull samples used in CRC calculations : YesUsed interface : Native Win32 interface for Win NT & 2000Gap handling : Appended to previous track

Used output format : User Defined EncoderSelected bitrate : 128 kBit/sQuality : HighAdd ID3 tag : YesCommand line compressor : C:\Program Files\Exact Audio Copy\Flac\flac.exeAdditional command line options : -8 -V -T "ARTIST=%artist%" -T "TITLE=%title%" -T "ALBUM=%albumtitle%" -T "DATE=%year%" -T "TRACKNUMBER=%tracknr%" -T "GENRE=%genre%" -T "PERFORMER=%albuminterpret%" -T "COMPOSER=%composer%" %haslyrics%--tag-from-file=LYRICS

TOC of the extracted CD

Track | Start | Length | Start sector | End sector --------------------------------------------------------- 1 | 0:00.00 | 3:20.07 | 0 | 15006 2 | 3:20.07 | 2:54.03 | 15007 | 28059 3 | 6:14.10 | 3:01.25 | 28060 | 41659 4 | 9:15.35 | 3:32.57 | 41660 | 57616 5 | 12:48.17 | 3:18.65 | 57617 | 72531 6 | 16:07.07 | 3:27.53 | 72532 | 88109 7 | 19:34.60 | 3:11.02 | 88110 | 102436 8 | 22:45.62 | 5:01.58 | 102437 | 125069 9 | 27:47.45 | 3:02.67 | 125070 | 138786 10 | 30:50.37 | 3:44.43 | 138787 | 155629 11 | 34:35.05 | 3:04.40 | 155630 | 169469 12 | 37:39.45 | 2:55.25 | 169470 | 182619 13 | 40:34.70 | 3:51.67 | 182620 | 200011 14 | 44:26.62 | 3:09.48 | 200012 | 214234 15 | 47:36.35 | 3:21.62 | 214235 | 229371 16 | 50:58.22 | 3:40.70 | 229372 | 245941 17 | 54:39.17 | 2:38.58 | 245942 | 257849

Track 1

Filename D:\Rips\01 - Pasadena Roof Orchestra - Breakaway.wav

Pre-gap length 0:00:02.00

Peak level 75.9 % Extraction speed 4.3 X Track quality 100.0 % Test CRC FE6E1A5D Copy CRC FE6E1A5D Accurately ripped (confidence 2) [580D7370] (AR v1) Copy OK

Track 2

Filename D:\Rips\02 - Pasadena Roof Orchestra - Jeepers Creepers.wav

Pre-gap length 0:00:01.00

Peak level 60.8 % Extraction speed 4.6 X Track quality 100.0 % Test CRC EB05F5FA Copy CRC EB05F5FA Accurately ripped (confidence 2) [14D9E35C] (AR v1) Copy OK

Track 3

Filename D:\Rips\03 - Pasadena Roof Orchestra - Piccolo Pete.wav

Pre-gap length 0:00:02.00

Peak level 78.1 % Extraction speed 5.0 X Track quality 100.0 % Test CRC 3E9BA18C Copy CRC 3E9BA18C Accurately ripped (confidence 2) [ABAA556D] (AR v1) Copy OK

Track 4

Filename D:\Rips\04 - Pasadena Roof Orchestra - The Very Thought of You.wav

Pre-gap length 0:00:01.00

Peak level 45.2 % Extraction speed 5.5 X Track quality 100.0 % Test CRC 940A5EAD Copy CRC 940A5EAD Accurately ripped (confidence 2) [CC8B16D2] (AR v1) Copy OK

Track 5

Filename D:\Rips\05 - Pasadena Roof Orchestra - The Continental.wav

Pre-gap length 0:00:02.00

Peak level 51.3 % Extraction speed 4.9 X Track quality 99.9 % Test CRC 19A0FA60 Copy CRC 19A0FA60 Accurately ripped (confidence 2) [0CFBB315] (AR v1) Copy OK

Track 6

Filename D:\Rips\06 - Pasadena Roof Orchestra - Temptation Rag.wav

Pre-gap length 0:00:02.00

Peak level 65.2 % Extraction speed 6.0 X Track quality 100.0 % Test CRC 6867D81C Copy CRC 6867D81C Accurately ripped (confidence 2) [1C9FE0F4] (AR v1) Copy OK

Track 7

Filename D:\Rips\07 - Pasadena Roof Orchestra - Sweet Georgia Brown.wav

Pre-gap length 0:00:02.00

Peak level 43.1 % Extraction speed 6.2 X Track quality 100.0 % Test CRC 9E75DA63 Copy CRC 9E75DA63 Accurately ripped (confidence 2) [02BF3408] (AR v1) Copy OK

Track 8

Filename D:\Rips\08 - Pasadena Roof Orchestra - Ain't Misbehavin'.wav

Pre-gap length 0:00:02.00

Peak level 48.5 % Extraction speed 6.3 X Track quality 99.9 % Test CRC 943D314B Copy CRC 943D314B Accurately ripped (confidence 2) [9F312680] (AR v1) Copy OK

Track 9

Filename D:\Rips\09 - Pasadena Roof Orchestra - Play That Hot Guitar.wav

Pre-gap length 0:00:01.00

Peak level 73.6 % Extraction speed 5.8 X Track quality 99.9 % Test CRC 80836829 Copy CRC 80836829 Accurately ripped (confidence 2) [89245494] (AR v1) Copy OK

Track 10

Filename D:\Rips\10 - Pasadena Roof Orchestra - Rockin' Chair.wav

Pre-gap length 0:00:02.00

Peak level 58.0 % Extraction speed 7.2 X Track quality 100.0 % Test CRC 0096E3C0 Copy CRC 0096E3C0 Accurately ripped (confidence 2) [0E5789AD] (AR v1) Copy OK

Track 11

Filename D:\Rips\11 - Pasadena Roof Orchestra - That's A Plenty.wav

Pre-gap length 0:00:01.00

Peak level 79.6 % Extraction speed 7.2 X Track quality 100.0 % Test CRC DDBEB3D0 Copy CRC DDBEB3D0 Accurately ripped (confidence 2) [2717DA2C] (AR v1) Copy OK

Track 12

Filename D:\Rips\12 - Pasadena Roof Orchestra - Zing! Went the Strings of My Heart.wav

Peak level 83.2 % Extraction speed 7.3 X Track quality 100.0 % Test CRC 1266925E Copy CRC 1266925E Accurately ripped (confidence 2) [366D35FA] (AR v1) Copy OK

Track 13

Filename D:\Rips\13 - Pasadena Roof Orchestra - Tom Thumb's Drum.wav

Pre-gap length 0:00:03.00

Peak level 93.1 % Extraction speed 7.8 X Track quality 100.0 % Test CRC BEB48F00 Copy CRC BEB48F00 Accurately ripped (confidence 2) [7A40DB16] (AR v1) Copy OK

Track 14

Filename D:\Rips\14 - Pasadena Roof Orchestra - Love Is Good for Anything That Ails You.wav

Pre-gap length 0:00:02.00

Peak level 57.1 % Extraction speed 7.8 X Track quality 100.0 % Test CRC 8AF62005 Copy CRC 8AF62005 Accurately ripped (confidence 2) [672AD335] (AR v1) Copy OK

Track 15

Filename D:\Rips\15 - Pasadena Roof Orchestra - Stompin' at the Savoy.wav

Pre-gap length 0:00:02.00

Peak level 71.1 % Extraction speed 6.9 X Track quality 99.9 % Test CRC 402244F7 Copy CRC 402244F7 Accurately ripped (confidence 2) [4B451B0F] (AR v1) Copy OK

Track 16

Filename D:\Rips\16 - Pasadena Roof Orchestra - Just One More Chance.wav

Pre-gap length 0:00:01.00

Peak level 28.3 % Extraction speed 8.4 X Track quality 100.0 % Test CRC 873DF450 Copy CRC 873DF450 Accurately ripped (confidence 2) [500495A1] (AR v1) Copy OK

Track 17

Filename D:\Rips\17 - Pasadena Roof Orchestra - The Man From the South.wav

Pre-gap length 0:00:02.00

Peak level 69.4 % Extraction speed 8.1 X Track quality 100.0 % Test CRC 49326AE8 Copy CRC 49326AE8 Accurately ripped (confidence 2) [B65296FF] (AR v1) Copy OK

All tracks accurately ripped

No errors occurred

End of status report

==== Log checksum 23D0760DFA22895872FDC7099C2A2E1B7E0861B28AFBDCAE89AE541586F8610A ====
  
REM GENRE JazzREM DATE 1991REM DISCID 020D6E11REM COMMENT "ExactAudioCopy v1.0b2"PERFORMER "Pasadena Roof Orchestra"TITLE "Breakaway"FILE "01 - Pasadena Roof Orchestra - Breakaway.wav" WAVE TRACK 01 AUDIO TITLE "Breakaway" PERFORMER "Pasadena Roof Orchestra" INDEX 01 00:00:00 TRACK 02 AUDIO TITLE "Jeepers Creepers" PERFORMER "Pasadena Roof Orchestra" INDEX 00 03:19:07FILE "02 - Pasadena Roof Orchestra - Jeepers Creepers.wav" WAVE INDEX 01 00:00:00 TRACK 03 AUDIO TITLE "Piccolo Pete" PERFORMER "Pasadena Roof Orchestra" INDEX 00 02:52:03FILE "03 - Pasadena Roof Orchestra - Piccolo Pete.wav" WAVE INDEX 01 00:00:00 TRACK 04 AUDIO TITLE "The Very Thought of You" PERFORMER "Pasadena Roof Orchestra" INDEX 00 03:00:25FILE "04 - Pasadena Roof Orchestra - The Very Thought of You.wav" WAVE INDEX 01 00:00:00 TRACK 05 AUDIO TITLE "The Continental" PERFORMER "Pasadena Roof Orchestra" INDEX 00 03:30:57FILE "05 - Pasadena Roof Orchestra - The Continental.wav" WAVE INDEX 01 00:00:00 TRACK 06 AUDIO TITLE "Temptation Rag" PERFORMER "Pasadena Roof Orchestra" INDEX 00 03:16:65FILE "06 - Pasadena Roof Orchestra - Temptation Rag.wav" WAVE INDEX 01 00:00:00 TRACK 07 AUDIO TITLE "Sweet Georgia Brown" PERFORMER "Pasadena Roof Orchestra" INDEX 00 03:25:53FILE "07 - Pasadena Roof Orchestra - Sweet Georgia Brown.wav" WAVE INDEX 01 00:00:00 TRACK 08 AUDIO TITLE "Ain't Misbehavin'" PERFORMER "Pasadena Roof Orchestra" INDEX 00 03:09:02FILE "08 - Pasadena Roof Orchestra - Ain't Misbehavin'.wav" WAVE INDEX 01 00:00:00 TRACK 09 AUDIO TITLE "Play That Hot Guitar" PERFORMER "Pasadena Roof Orchestra" INDEX 00 05:00:58FILE "09 - Pasadena Roof Orchestra - Play That Hot Guitar.wav" WAVE INDEX 01 00:00:00 TRACK 10 AUDIO TITLE "Rockin' Chair" PERFORMER "Pasadena Roof Orchestra" INDEX 00 03:00:67FILE "10 - Pasadena Roof Orchestra - Rockin' Chair.wav" WAVE INDEX 01 00:00:00 TRACK 11 AUDIO TITLE "That's A Plenty" PERFORMER "Pasadena Roof Orchestra" INDEX 00 03:43:43FILE "11 - Pasadena Roof Orchestra - That's A Plenty.wav" WAVE INDEX 01 00:00:00FILE "12 - Pasadena Roof Orchestra - Zing! Went the Strings of My Heart.wav" WAVE TRACK 12 AUDIO TITLE "Zing! Went the Strings of My Heart" PERFORMER "Pasadena Roof Orchestra" INDEX 01 00:00:00 TRACK 13 AUDIO TITLE "Tom Thumb's Drum" PERFORMER "Pasadena Roof Orchestra" INDEX 00 02:52:25FILE "13 - Pasadena Roof Orchestra - Tom Thumb's Drum.wav" WAVE INDEX 01 00:00:00 TRACK 14 AUDIO TITLE "Love Is Good for Anything That Ails You" PERFORMER "Pasadena Roof Orchestra" INDEX 00 03:49:67FILE "14 - Pasadena Roof Orchestra - Love Is Good for Anything That Ails You.wav" WAVE INDEX 01 00:00:00 TRACK 15 AUDIO TITLE "Stompin' at the Savoy" PERFORMER "Pasadena Roof Orchestra" INDEX 00 03:07:48FILE "15 - Pasadena Roof Orchestra - Stompin' at the Savoy.wav" WAVE INDEX 01 00:00:00 TRACK 16 AUDIO TITLE "Just One More Chance" PERFORMER "Pasadena Roof Orchestra" INDEX 00 03:20:62FILE "16 - Pasadena Roof Orchestra - Just One More Chance.wav" WAVE INDEX 01 00:00:00 TRACK 17 AUDIO TITLE "The Man From the South" PERFORMER "Pasadena Roof Orchestra" INDEX 00 03:38:70FILE "17 - Pasadena Roof Orchestra - The Man From the South.wav" WAVE INDEX 01 00:00:00
  
AUDIOCHECKER v2.0 beta (build 457) - by Dester - <a href="mailto:opdester@freemail.hu" class="postLink">opdester@freemail.hu</a>~~~~~~~~~~~~~~~~~~~~~~~~~~~~~~~~~~-=== НЕ РЕДАКТИРУЙТЕ ЭТОТ ФАЙЛ! ===-

Путь: ...\The Pasadena Roof Orchestra - Breakaway (1991)

01 -=- 01 - Pasadena Roof Orchestra - Breakaway.flac -=- CDDA (100%)02 -=- 02 - Pasadena Roof Orchestra - Jeepers Creepers.flac -=- CDDA (100%)03 -=- 03 - Pasadena Roof Orchestra - Piccolo Pete.flac -=- CDDA (100%)04 -=- 04 - Pasadena Roof Orchestra - The Very Thought of You.flac -=- CDDA (100%)05 -=- 05 - Pasadena Roof Orchestra - The Continental.flac -=- CDDA (99%)06 -=- 06 - Pasadena Roof Orchestra - Temptation Rag.flac -=- CDDA (100%)07 -=- 07 - Pasadena Roof Orchestra - Sweet Georgia Brown.flac -=- CDDA (99%)08 -=- 08 - Pasadena Roof Orchestra - Ain't Misbehavin'.flac -=- CDDA (100%)09 -=- 09 - Pasadena Roof Orchestra - Play That Hot Guitar.flac -=- CDDA (100%)10 -=- 10 - Pasadena Roof Orchestra - Rockin' Chair.flac -=- CDDA (100%)11 -=- 11 - Pasadena Roof Orchestra - That's A Plenty.flac -=- CDDA (100%)12 -=- 12 - Pasadena Roof Orchestra - Zing! Went the Strings of My Heart.flac -=- CDDA (100%)13 -=- 13 - Pasadena Roof Orchestra - Tom Thumb's Drum.flac -=- CDDA (100%)14 -=- 14 - Pasadena Roof Orchestra - Love Is Good for Anything That Ails You.flac -=- CDDA (100%)15 -=- 15 - Pasadena Roof Orchestra - Stompin' at the Savoy.flac -=- CDDA (99%)16 -=- 16 - Pasadena Roof Orchestra - Just One More Chance.flac -=- CDDA (100%)17 -=- 17 - Pasadena Roof Orchestra - The Man From the South.flac -=- CDDA (100%)

Сводка 99,82% CDDA

161745972
Уже более 40 лет Pasadena Roof Orchestra, оркестр родом из Англии, восхищает публику со всего мира сочетанием свинга и танцевальной музыки 20—40-х годов двадцатого века. Свинг – это больше, чем музыкальный жанр: это радость жизни и зажигательное благозвучие! Он уходит корнями в довоенные танцевальные бэнды и бурные двадцатые, которые в будущем стали источником вдохновения для создателей великих свинг-бэндов. Свинг, в отличие от других музыкальных направлений, не только пережил десятилетия, но и пользуется все большей популярностью и сегодня. Значительная часть этой популярности выпала на долю Pasadena Roof Orchestra.

Этот музыкальный стиль когда-то поднимал настроение молодому послевоенному миру. Сегодня оркестр не только доносит свою музыку до молодой публики со всего мира, но и приводит к этой музыке новые поколения музыкантов. Между тем имя оркестра стало таким же легендарным, как и имена его вдохновителей из 20-х и 30-х годов двадцатого века.

С 1974 года было выпущено 40 звуковых носителей (пластинок, синглов, DVD- и компакт-дисков) более чем с 300 композициями. Вечное звучание оркестра заставляет все снова и снова издавать его музыку. Недавно в Японии пять первых виниловых пластинок Pasadena Roof Orchestra были переизданы на компакт-дисках.

Если говорить об аутентичном свинге, то здесь Pasadena Roof Orchestra поднимает планку на недосягаемую высоту…


Трекер:  [ 22-Фев-2012 15:02 ]

  

Скачать .torrent

Размер .torrent файла 13 KB


Размер: 293 MB
Хэш (hash) релиза: d3b78d070964fc319bb575ef17fc6a480d78e399

Еще никто не оставлял запись к записи скачать торрент The Pasadena Roof Orchestra - Breakaway - 1991, FLAC . Будь первым!

!Обратная связь