Скачать через торрент музыку Clarence Williams - 1934-1937 {The Chronological Classics, 918} - 1996, FLAC бесплатно без регистрации torrent

Если у вас наблюдаются проблемы со скриншотами, переходом по ссылками, скачиванием торрентов - проблемы в блокировщике рекламы AdBlock. #хорошегоДня!


Статистика раздачи
Размер:  122 MB   |    Зарегистрирован:  5 лет 7 месяцев   |    .torrent скачан:  22 раза   |   
Раздают:  1  
   
Загрузка...
 
Автор Сообщение

Umakiro

avatar Umakiro


Clarence Williams – 1934-1937 {The Chronological Classics, 918}

Жанр: Dixieland, New Orleans Jazz
Год издания диска: 1996
Издатель (лейбл): Classics
Номер по каталогу: 918
Аудиокодек: FLAC (*.flac)
Тип рипа: tracks+.cue
Битрейт аудио: lossless
Продолжительность: 55:40
Источник: вата
Наличие сканов в содержимом раздачи: маленькие

Треклист:
01. 'Tain't Nobody's Biz-ness If I Do (Clarence Williams And His Orchestra) (2:27)
02. I Can't Think Of Anything But You (Clarence Williams And His Orchestra) (2:48)
03. Sugar Blues (Clarence Williams And His Orchestra) (2:36)
04. Jungle Crawl (Clarence Williams And His Orchestra) (2:31)
05. I Can See You All Over The Place (Clarence Williams And His Orchestra) (2:47)
06. Savin' Up My Baby (Clarence Williams And His Orchestra) (2:42)
07. Milk Cow Blues (Clarence Williams And His Orchestra) (2:59)
08. Black Gal (Clarence Williams And His Orchestra) (2:47)
09. A Foolish Little Girl Like You (Clarence Williams And His Orchestra) (2:57)
10. There's Gonna Be The Devil To Pay (Clarence Williams And His Orchestra) (2:48)
11. This Is My Sunday Off (Clarence Williams And His Orchestra) (2:51)
12. Yama Yama Blues (Clarence Williams And His Orchestra) (3:00)
13. Let Every Day Be Mother's Day (Clarence Williams And His Orchestra) (3:02)
14. Lady Luck Blues (Clarence Williams And His Orchestra) (2:59)
15. Cryin' Mood (Clarence Williams And His Washboard Band) (2:20)
16. Top Of The Town (Clarence Williams And His Washboard Band) (2:51)
17. Turn Off The Moon (Clarence Williams And His Washboard Band) (2:57)
18. More Than That (Clarence Williams And His Washboard Band) (2:58)
19. Jammin' (Clarence Williams And His Washboard Band) (2:54)
20. Wanted (Clarence Williams And His Washboard Band) (2:28)
 
 
Exact Audio Copy V1.0 beta 3 from 29. August 2011

EAC extraction logfile from 18. December 2011, 3:19

Clarence Williams / 1934-1937

Used drive : HL-DT-STDVDRAM GT20N Adapter: 2 ID: 0

Read mode : SecureUtilize accurate stream : YesDefeat audio cache : YesMake use of C2 pointers : No

Read offset correction : 667Overread into Lead-In and Lead-Out : NoFill up missing offset samples with silence : YesDelete leading and trailing silent blocks : NoNull samples used in CRC calculations : YesUsed interface : Native Win32 interface for Win NT & 2000Gap handling : Appended to previous track

Used output format : User Defined EncoderSelected bitrate : 1024 kBit/sQuality : HighAdd ID3 tag : NoCommand line compressor : C:\Program Files (x86)\Exact Audio Copy\Flac\flac.exeAdditional command line options : -8 -V -T "ARTIST=%artist%" -T "TITLE=%title%" -T "ALBUM=%albumtitle%" -T "DATE=%year%" -T "TRACKNUMBER=%tracknr%" -T "GENRE=%genre%" -T "PERFORMER=%albuminterpret%" -T "COMPOSER=%composer%" %haslyrics%--tag-from-file=LYRICS="%lyricsfile%"%haslyrics% -T "ALBUMARTIST=%albumartist%" -T "DISCNUMBER=%cdnumber%" -T "TOTALDISCS=%totalcds%" -T "TOTALTRACKS=%numtracks%" -T "COMMENT=%comment%" %source% -o %dest%

TOC of the extracted CD

Track | Start | Length | Start sector | End sector --------------------------------------------------------- 1 | 0:00.32 | 2:27.25 | 32 | 11081 2 | 2:27.57 | 2:48.13 | 11082 | 23694 3 | 5:15.70 | 2:36.12 | 23695 | 35406 4 | 7:52.07 | 2:30.45 | 35407 | 46701 5 | 10:22.52 | 2:46.38 | 46702 | 59189 6 | 13:09.15 | 2:41.65 | 59190 | 71329 7 | 15:51.05 | 2:58.45 | 71330 | 84724 8 | 18:49.50 | 2:47.20 | 84725 | 97269 9 | 21:36.70 | 2:56.67 | 97270 | 110536 10 | 24:33.62 | 2:47.40 | 110537 | 123101 11 | 27:21.27 | 2:50.55 | 123102 | 135906 12 | 30:12.07 | 3:00.35 | 135907 | 149441 13 | 33:12.42 | 3:01.58 | 149442 | 163074 14 | 36:14.25 | 2:59.27 | 163075 | 176526 15 | 39:13.52 | 2:19.38 | 176527 | 186989 16 | 41:33.15 | 2:50.72 | 186990 | 199811 17 | 44:24.12 | 2:56.70 | 199812 | 213081 18 | 47:21.07 | 2:57.38 | 213082 | 226394 19 | 50:18.45 | 2:53.60 | 226395 | 239429 20 | 53:12.30 | 2:28.15 | 239430 | 250544

Track 1

Filename E:\ClarenceWilliams1934-1937_918\01 - Clarence Williams And His Orchestra - T'aint Nobody's Buz-ness If I Do.wav

Pre-gap length 0:00:02.42

Peak level 86.3 % Extraction speed 2.1 X Track quality 100.0 % Test CRC 340E1272 Copy CRC 340E1272 Track not present in AccurateRip database Copy OK

Track 2

Filename E:\ClarenceWilliams1934-1937_918\02 - Clarence Williams And His Orchestra - I Can't Think of Anything But You.wav

Pre-gap length 0:00:01.82

Peak level 72.7 % Extraction speed 2.4 X Track quality 100.0 % Test CRC 5CE7F054 Copy CRC 5CE7F054 Track not present in AccurateRip database Copy OK

Track 3

Filename E:\ClarenceWilliams1934-1937_918\03 - Clarence Williams And His Orchestra - Sugar Blues.wav

Pre-gap length 0:00:01.70

Peak level 84.2 % Extraction speed 2.6 X Track quality 100.0 % Test CRC 0925A3B7 Copy CRC 0925A3B7 Track not present in AccurateRip database Copy OK

Track 4

Filename E:\ClarenceWilliams1934-1937_918\04 - Clarence Williams And His Orchestra - Jungle Crawl.wav

Pre-gap length 0:00:01.73

Peak level 57.1 % Extraction speed 2.6 X Track quality 100.0 % Test CRC AFF1D386 Copy CRC AFF1D386 Track not present in AccurateRip database Copy OK

Track 5

Filename E:\ClarenceWilliams1934-1937_918\05 - Clarence Williams And His Orchestra - I Can See You All Over the Place.wav

Pre-gap length 0:00:01.73

Peak level 89.3 % Extraction speed 2.8 X Track quality 100.0 % Test CRC 0D9E52CC Copy CRC 0D9E52CC Track not present in AccurateRip database Copy OK

Track 6

Filename E:\ClarenceWilliams1934-1937_918\06 - Clarence Williams And His Orchestra - Savin' Up My Baby.wav

Pre-gap length 0:00:01.66

Peak level 80.1 % Extraction speed 3.0 X Track quality 100.0 % Test CRC 41A13E3D Copy CRC 41A13E3D Track not present in AccurateRip database Copy OK

Track 7

Filename E:\ClarenceWilliams1934-1937_918\07 - Clarence Williams And His Orchestra - Milk Cow Blues.wav

Pre-gap length 0:00:01.66

Peak level 78.8 % Extraction speed 2.1 X Track quality 99.9 % Test CRC EFA22DCF Copy CRC EFA22DCF Track not present in AccurateRip database Copy OK

Track 8

Filename E:\ClarenceWilliams1934-1937_918\08 - Clarence Williams And His Orchestra - Black Gal.wav

Pre-gap length 0:00:01.57

Peak level 76.8 % Extraction speed 1.6 X Track quality 100.0 % Test CRC ABFFDE3F Copy CRC ABFFDE3F Track not present in AccurateRip database Copy OK

Track 9

Filename E:\ClarenceWilliams1934-1937_918\09 - Clarence Williams And His Orchestra - A Foolish Little Girl Like You.wav

Pre-gap length 0:00:01.46

Peak level 94.5 % Extraction speed 1.7 X Track quality 100.0 % Test CRC C10862E9 Copy CRC C10862E9 Track not present in AccurateRip database Copy OK

Track 10

Filename E:\ClarenceWilliams1934-1937_918\10 - Clarence Williams And His Orchestra - There's Gonna Be the Devil To Pay.wav

Pre-gap length 0:00:01.69

Peak level 76.0 % Extraction speed 1.7 X Track quality 100.0 % Test CRC C26D8EF8 Copy CRC C26D8EF8 Track not present in AccurateRip database Copy OK

Track 11

Filename E:\ClarenceWilliams1934-1937_918\11 - Clarence Williams And His Orchestra - This Is My Sunday Off.wav

Pre-gap length 0:00:01.46

Peak level 75.2 % Extraction speed 1.9 X Track quality 100.0 % Test CRC 68B2DB90 Copy CRC 68B2DB90 Track not present in AccurateRip database Copy OK

Track 12

Filename E:\ClarenceWilliams1934-1937_918\12 - Clarence Williams And His Orchestra - Yama Yama Blues.wav

Pre-gap length 0:00:01.46

Peak level 72.7 % Extraction speed 1.9 X Track quality 100.0 % Test CRC 4D9F3B54 Copy CRC 4D9F3B54 Track not present in AccurateRip database Copy OK

Track 13

Filename E:\ClarenceWilliams1934-1937_918\13 - Clarence Williams And His Orchestra - Let Every Day Be Mother's Day.wav

Pre-gap length 0:00:01.82

Peak level 87.1 % Extraction speed 2.0 X Track quality 100.0 % Test CRC 826B3011 Copy CRC 826B3011 Track not present in AccurateRip database Copy OK

Track 14

Filename E:\ClarenceWilliams1934-1937_918\14 - Clarence Williams And His Orchestra - Lady Luck Blues.wav

Pre-gap length 0:00:02.17

Peak level 83.3 % Extraction speed 2.1 X Track quality 100.0 % Test CRC 06BFF088 Copy CRC 06BFF088 Track not present in AccurateRip database Copy OK

Track 15

Filename E:\ClarenceWilliams1934-1937_918\15 - Clarence Williams And His Washboard Band - Cryin' Blues.wav

Pre-gap length 0:00:01.93

Peak level 79.1 % Extraction speed 2.0 X Track quality 100.0 % Test CRC 5A94FB9A Copy CRC 5A94FB9A Track not present in AccurateRip database Copy OK

Track 16

Filename E:\ClarenceWilliams1934-1937_918\16 - Clarence Williams And His Washboard Band - Top of the Town.wav

Pre-gap length 0:00:01.46

Peak level 83.7 % Extraction speed 1.8 X Track quality 99.9 % Test CRC 32C9A65E Copy CRC 32C9A65E Track not present in AccurateRip database Copy OK

Track 17

Filename E:\ClarenceWilliams1934-1937_918\17 - Clarence Williams And His Washboard Band - Turn Off the Moon.wav

Pre-gap length 0:00:01.82

Peak level 77.7 % Extraction speed 1.9 X Track quality 99.9 % Test CRC 6544AE23 Copy CRC 6544AE23 Track not present in AccurateRip database Copy OK

Track 18

Filename E:\ClarenceWilliams1934-1937_918\18 - Clarence Williams And His Washboard Band - More Than That.wav

Pre-gap length 0:00:01.80

Peak level 88.1 % Extraction speed 2.2 X Track quality 100.0 % Test CRC 0309C6F9 Copy CRC 0309C6F9 Track not present in AccurateRip database Copy OK

Track 19

Filename E:\ClarenceWilliams1934-1937_918\19 - Clarence Williams And His Washboard Band - Jammin'.wav

Pre-gap length 0:00:01.66

Peak level 74.8 % Extraction speed 2.3 X Track quality 100.0 % Test CRC 4C15E47D Copy CRC 4C15E47D Track not present in AccurateRip database Copy OK

Track 20

Filename E:\ClarenceWilliams1934-1937_918\20 - Clarence Williams And His Washboard Band - Wanted.wav

Pre-gap length 0:02:54.09

Peak level 87.0 % Extraction speed 2.3 X Track quality 100.0 % Test CRC B16A5D73 Copy CRC B16A5D73 Track not present in AccurateRip database Copy OK

None of the tracks are present in the AccurateRip database

No errors occurred

End of status report

==== Log checksum 72445D982DE14AE525A08E7C00AF35864E09E536B2FE512C2D2346C69E28E55B ====
 
REM GENRE JazzREM DATE 1996REM DISCID 250D0C14REM COMMENT "ExactAudioCopy v1.0b3"PERFORMER "Clarence Williams"TITLE "1934-1937 {Chronological Classics, 918}"FILE "01. 'Tain't Nobody's Biz-ness If I Do.flac" WAVE TRACK 01 AUDIO TITLE "'Tain't Nobody's Biz-ness If I Do" PERFORMER "Clarence Williams And His Orchestra" PREGAP 00:00:32 INDEX 01 00:00:00 TRACK 02 AUDIO TITLE "I Can't Think Of Anything But You" PERFORMER "Clarence Williams And His Orchestra" INDEX 00 02:25:38FILE "02. I Can't Think Of Anything But You.flac" WAVE INDEX 01 00:00:00 TRACK 03 AUDIO TITLE "Sugar Blues" PERFORMER "Clarence Williams And His Orchestra" INDEX 00 02:46:35FILE "03. Sugar Blues.flac" WAVE INDEX 01 00:00:00 TRACK 04 AUDIO TITLE "Jungle Crawl" PERFORMER "Clarence Williams And His Orchestra" INDEX 00 02:34:32FILE "04. Jungle Crawl.flac" WAVE INDEX 01 00:00:00 TRACK 05 AUDIO TITLE "I Can See You All Over The Place" PERFORMER "Clarence Williams And His Orchestra" INDEX 00 02:28:65FILE "05. I Can See You All Over The Place.flac" WAVE INDEX 01 00:00:00 TRACK 06 AUDIO TITLE "Savin' Up My Baby" PERFORMER "Clarence Williams And His Orchestra" INDEX 00 02:44:63FILE "06. Savin' Up My Baby.flac" WAVE INDEX 01 00:00:00 TRACK 07 AUDIO TITLE "Milk Cow Blues" PERFORMER "Clarence Williams And His Orchestra" INDEX 00 02:40:15FILE "07. Milk Cow Blues.flac" WAVE INDEX 01 00:00:00 TRACK 08 AUDIO TITLE "Black Gal" PERFORMER "Clarence Williams And His Orchestra" INDEX 00 02:57:02FILE "08. Black Gal.flac" WAVE INDEX 01 00:00:00 TRACK 09 AUDIO TITLE "A Foolish Little Girl Like You" PERFORMER "Clarence Williams And His Orchestra" INDEX 00 02:45:60FILE "09. A Foolish Little Girl Like You.flac" WAVE INDEX 01 00:00:00 TRACK 10 AUDIO TITLE "There's Gonna Be The Devil To Pay" PERFORMER "Clarence Williams And His Orchestra" INDEX 00 02:55:15FILE "10. There's Gonna Be The Devil To Pay.flac" WAVE INDEX 01 00:00:00 TRACK 11 AUDIO TITLE "This Is My Sunday Off" PERFORMER "Clarence Williams And His Orchestra" INDEX 00 02:46:05FILE "11. This Is My Sunday Off.flac" WAVE INDEX 01 00:00:00 TRACK 12 AUDIO TITLE "Yama Yama Blues" PERFORMER "Clarence Williams And His Orchestra" INDEX 00 02:49:20FILE "12. Yama Yama Blues.flac" WAVE INDEX 01 00:00:00 TRACK 13 AUDIO TITLE "Let Every Day Be Mother's Day" PERFORMER "Clarence Williams And His Orchestra" INDEX 00 02:58:48FILE "13. Let Every Day Be Mother's Day.flac" WAVE INDEX 01 00:00:00 TRACK 14 AUDIO TITLE "Lady Luck Blues" PERFORMER "Clarence Williams And His Orchestra" INDEX 00 02:59:45FILE "14. Lady Luck Blues.flac" WAVE INDEX 01 00:00:00 TRACK 15 AUDIO TITLE "Cryin' Mood" PERFORMER "Clarence Williams And His Washboard Band" INDEX 00 02:57:32FILE "15. Cryin' Mood.flac" WAVE INDEX 01 00:00:00 TRACK 16 AUDIO TITLE "Top Of The Town" PERFORMER "Clarence Williams And His Washboard Band" INDEX 00 02:18:03FILE "16. Top Of The Town.flac" WAVE INDEX 01 00:00:00 TRACK 17 AUDIO TITLE "Turn Off The Moon" PERFORMER "Clarence Williams And His Washboard Band" INDEX 00 02:49:10FILE "17. Turn Off The Moon.flac" WAVE INDEX 01 00:00:00 TRACK 18 AUDIO TITLE "More Than That" PERFORMER "Clarence Williams And His Washboard Band" INDEX 00 02:55:10FILE "18. More Than That.flac" WAVE INDEX 01 00:00:00 TRACK 19 AUDIO TITLE "Jammin'" PERFORMER "Clarence Williams And His Washboard Band" INDEX 00 02:55:63FILE "19. Jammin'.flac" WAVE INDEX 01 00:00:00 TRACK 20 AUDIO TITLE "Wanted" PERFORMER "Clarence Williams And His Washboard Band" INDEX 00 00:00:53FILE "20. Wanted.flac" WAVE INDEX 01 00:00:00


Трекер:  [ 21-Фев-2012 12:20 ]

  

Скачать .torrent

Размер .torrent файла 21 KB


Размер: 122 MB
Хэш (hash) релиза: 0cc39717e271abd99bec719d31eb9a92f5032d04

Еще никто не оставлял запись к записи скачать торрент Clarence Williams - 1934-1937 {The Chronological Classics, 918} - 1996, FLAC . Будь первым!

!Обратная связь