Скачать через торрент музыку Billie Holiday And Her Orchestra - 1933-1937 {The Chronological Classics, 582} - 1991, FLAC бесплатно без регистрации torrent

Если у вас наблюдаются проблемы со скриншотами, переходом по ссылками, скачиванием торрентов - проблемы в блокировщике рекламы AdBlock. #хорошегоДня!


Статистика раздачи
Размер:  190 MB   |    Зарегистрирован:  5 лет 8 месяцев   |    .torrent скачан:  31 раз   |   
Раздают:  1  
   
Загрузка...
 
Автор Сообщение

Umakiro

avatar Umakiro


Billie Holiday And Her Orchestra – 1933-1937 {The Chronological Classics, 582}

Жанр: Vocal Jazz
Год издания диска: 1991
Издатель (лейбл): Classics
Номер по каталогу: 582
Аудиокодек: FLAC (*.flac)
Тип рипа: tracks+.cue
Битрейт аудио: lossless
Продолжительность: 67:22
Источник: вата
Наличие сканов в содержимом раздачи: да

Треклист:
01. Your Mother's Son-In-Law (2:46)
02. Riffin' The Scotch (2:35)
03. Did I Remember? (2:52)
04. No Regrets (2:37)
05. Summertime (2:54)
06. Billie's Blues (2:40)
07. A Fine Romance (2:51)
08. I Can't Pretend (3:05)
09. One, Two, Button Your Shoe (2:49)
10. Let's Call A Heart A Heart (3:03)
11. One Never Knows, Does One? (3:04)
12. I've Got My Love To Keep Me Warm (2:56)
13. If My Heart Could Only Talk (3:04)
14. Please Keep Me In Your Dreams (2:17)
15. Where Is The Sun? (2:47)
16. Let's Call The Whole Thing Off (2:38)
17. They Can't Take That Away From Me (3:03)
18. Don't Know If I'm Comin' Or Goin' (2:46)
19. Me, Myself And I (2:37)
20. A Sailboat In The Moonlight (2:50)
21. Born To Love (2:40)
22. Without Your Love (2:53)
23. Getting Some Fun Out Of Life (3:03)
24. Who Wants Love? (2:33)
 
 
X Lossless Decoder version 20101212 (126.2)

XLD extraction logfile from 2011-02-09 17:51:59 -0600

Billie Holiday / 1933-1937 (Chronological Classics 582)

Used drive : MATSHITA CD-RW CW-8221 (revision GA0K)

Ripper mode : CDParanoia III 10.2Disable audio cache : OK for the drive with a cache less than 2750KiBMake use of C2 pointers : NORead offset correction : 102Max retry count : 100Gap status : Analyzed, Appended

TOC of the extracted CD Track | Start | Length | Start sector | End sector --------------------------------------------------------- 1 | 00:00:33 | 02:45:45 | 33 | 12452 2 | 02:46:03 | 02:35:30 | 12453 | 24107 3 | 05:21:33 | 02:51:62 | 24108 | 36994 4 | 08:13:20 | 02:36:63 | 36995 | 48757 5 | 10:50:08 | 02:54:30 | 48758 | 61837 6 | 13:44:38 | 02:39:72 | 61838 | 73834 7 | 16:24:35 | 02:50:70 | 73835 | 86654 8 | 19:15:30 | 03:05:03 | 86655 | 100532 9 | 22:20:33 | 02:49:12 | 100533 | 113219 10 | 25:09:45 | 03:02:45 | 113220 | 126914 11 | 28:12:15 | 03:03:53 | 126915 | 140692 12 | 31:15:68 | 02:55:62 | 140693 | 153879 13 | 34:11:55 | 03:03:58 | 153880 | 167662 14 | 37:15:38 | 02:16:52 | 167663 | 177914 15 | 39:32:15 | 02:46:63 | 177915 | 190427 16 | 42:19:03 | 02:38:10 | 190428 | 202287 17 | 44:57:13 | 03:03:02 | 202288 | 216014 18 | 48:00:15 | 02:46:28 | 216015 | 228492 19 | 50:46:43 | 02:36:47 | 228493 | 240239 20 | 53:23:15 | 02:50:08 | 240240 | 252997 21 | 56:13:23 | 02:39:60 | 252998 | 264982 22 | 58:53:08 | 02:53:12 | 264983 | 277969 23 | 61:46:20 | 03:02:53 | 277970 | 291672 24 | 64:48:73 | 02:33:35 | 291673 | 303182

AccurateRip Summary Track 01 : OK (confidence 2) Track 02 : OK (confidence 2) Track 03 : OK (confidence 2) Track 04 : OK (confidence 2) Track 05 : OK (confidence 2) Track 06 : OK (confidence 2) Track 07 : OK (confidence 2) Track 08 : OK (confidence 2) Track 09 : OK (confidence 2) Track 10 : OK (confidence 2) Track 11 : OK (confidence 2) Track 12 : OK (confidence 2) Track 13 : OK (confidence 2) Track 14 : OK (confidence 2) Track 15 : OK (confidence 2) Track 16 : OK (confidence 2) Track 17 : OK (confidence 2) Track 18 : OK (confidence 2) Track 19 : OK (confidence 2) Track 20 : OK (confidence 2) Track 21 : OK (confidence 2) Track 22 : OK (confidence 2) Track 23 : OK (confidence 2) Track 24 : OK (confidence 2) ->All tracks accurately ripped.

All Tracks Album gain : -0.68 dB Peak : 0.999817 Statistics Read error : 0 Skipped (treated as error) : 0 Edge jitter error (maybe fixed) : 0 Atom jitter error (maybe fixed) : 0 Drift error (maybe fixed) : 0 Dropped bytes error (maybe fixed) : 0 Duplicated bytes error (maybe fixed) : 0

Track 01 Filename : /Users/joel/freshly_transcoded/Billie Holiday - 1933-1937 (Chronological Classics 582) [FLAC]/01 - Your Mother's Son-In-Law.flac Pre-gap length : 00:02:33

Track gain : -1.22 dB Peak : 0.688690 CRC32 hash (test run) : FA42464A CRC32 hash : FA42464A CRC32 hash (skip zero) : 28170C34 AccurateRip signature : 09AC5415 ->Accurately ripped! (confidence 2) Statistics Read error : 0 Skipped (treated as error) : 0 Edge jitter error (maybe fixed) : 0 Atom jitter error (maybe fixed) : 0 Drift error (maybe fixed) : 0 Dropped bytes error (maybe fixed) : 0 Duplicated bytes error (maybe fixed) : 0 Inconsistency in error sectors : 0

Track 02 Filename : /Users/joel/freshly_transcoded/Billie Holiday - 1933-1937 (Chronological Classics 582) [FLAC]/02 - Riffin' The Scotch.flac Pre-gap length : 00:01:70

Track gain : -3.51 dB Peak : 0.999817 CRC32 hash (test run) : 15FD9180 CRC32 hash : 15FD9180 CRC32 hash (skip zero) : 9DF9E508 AccurateRip signature : 59145979 ->Accurately ripped! (confidence 2) Statistics Read error : 0 Skipped (treated as error) : 0 Edge jitter error (maybe fixed) : 0 Atom jitter error (maybe fixed) : 0 Drift error (maybe fixed) : 0 Dropped bytes error (maybe fixed) : 0 Duplicated bytes error (maybe fixed) : 0 Inconsistency in error sectors : 0

Track 03 Filename : /Users/joel/freshly_transcoded/Billie Holiday - 1933-1937 (Chronological Classics 582) [FLAC]/03 - Did I Remember?.flac Pre-gap length : 00:00:74

Track gain : 0.63 dB Peak : 0.502411 CRC32 hash (test run) : 9E8D2A9E CRC32 hash : 9E8D2A9E CRC32 hash (skip zero) : 1A10A301 AccurateRip signature : EBEC49D8 ->Accurately ripped! (confidence 2) Statistics Read error : 0 Skipped (treated as error) : 0 Edge jitter error (maybe fixed) : 0 Atom jitter error (maybe fixed) : 0 Drift error (maybe fixed) : 0 Dropped bytes error (maybe fixed) : 0 Duplicated bytes error (maybe fixed) : 0 Inconsistency in error sectors : 0

Track 04 Filename : /Users/joel/freshly_transcoded/Billie Holiday - 1933-1937 (Chronological Classics 582) [FLAC]/04 - No Regrets.flac Pre-gap length : 00:02:07

Track gain : 1.88 dB Peak : 0.433014 CRC32 hash (test run) : ECAC592E CRC32 hash : ECAC592E CRC32 hash (skip zero) : C9F887D6 AccurateRip signature : B5C7DF26 ->Accurately ripped! (confidence 2) Statistics Read error : 0 Skipped (treated as error) : 0 Edge jitter error (maybe fixed) : 0 Atom jitter error (maybe fixed) : 0 Drift error (maybe fixed) : 0 Dropped bytes error (maybe fixed) : 0 Duplicated bytes error (maybe fixed) : 0 Inconsistency in error sectors : 0

Track 05 Filename : /Users/joel/freshly_transcoded/Billie Holiday - 1933-1937 (Chronological Classics 582) [FLAC]/05 - Summertime.flac Pre-gap length : 00:00:58

Track gain : -0.02 dB Peak : 0.519135 CRC32 hash (test run) : BE71CCC5 CRC32 hash : BE71CCC5 CRC32 hash (skip zero) : 9C94E950 AccurateRip signature : 6A58718B ->Accurately ripped! (confidence 2) Statistics Read error : 0 Skipped (treated as error) : 0 Edge jitter error (maybe fixed) : 0 Atom jitter error (maybe fixed) : 0 Drift error (maybe fixed) : 0 Dropped bytes error (maybe fixed) : 0 Duplicated bytes error (maybe fixed) : 0 Inconsistency in error sectors : 0

Track 06 Filename : /Users/joel/freshly_transcoded/Billie Holiday - 1933-1937 (Chronological Classics 582) [FLAC]/06 - Billie's Blues.flac Pre-gap length : 00:01:03

Track gain : -0.07 dB Peak : 0.487061 CRC32 hash (test run) : D501DDB3 CRC32 hash : D501DDB3 CRC32 hash (skip zero) : 737DFE14 AccurateRip signature : 210CC53F ->Accurately ripped! (confidence 2) Statistics Read error : 0 Skipped (treated as error) : 0 Edge jitter error (maybe fixed) : 0 Atom jitter error (maybe fixed) : 0 Drift error (maybe fixed) : 0 Dropped bytes error (maybe fixed) : 0 Duplicated bytes error (maybe fixed) : 0 Inconsistency in error sectors : 0

Track 07 Filename : /Users/joel/freshly_transcoded/Billie Holiday - 1933-1937 (Chronological Classics 582) [FLAC]/07 - A Fine Romance.flac Pre-gap length : 00:02:05

Track gain : -2.86 dB Peak : 0.999207 CRC32 hash (test run) : 818E0ED5 CRC32 hash : 818E0ED5 CRC32 hash (skip zero) : A9804FF7 AccurateRip signature : 52DE2149 ->Accurately ripped! (confidence 2) Statistics Read error : 0 Skipped (treated as error) : 0 Edge jitter error (maybe fixed) : 0 Atom jitter error (maybe fixed) : 0 Drift error (maybe fixed) : 0 Dropped bytes error (maybe fixed) : 0 Duplicated bytes error (maybe fixed) : 0 Inconsistency in error sectors : 0

Track 08 Filename : /Users/joel/freshly_transcoded/Billie Holiday - 1933-1937 (Chronological Classics 582) [FLAC]/08 - I Can't Pretend.flac Pre-gap length : 00:01:05

Track gain : -0.29 dB Peak : 0.557251 CRC32 hash (test run) : 8B96EFAB CRC32 hash : 8B96EFAB CRC32 hash (skip zero) : 3BFAB9E0 AccurateRip signature : 899EE1F3 ->Accurately ripped! (confidence 2) Statistics Read error : 0 Skipped (treated as error) : 0 Edge jitter error (maybe fixed) : 0 Atom jitter error (maybe fixed) : 0 Drift error (maybe fixed) : 0 Dropped bytes error (maybe fixed) : 0 Duplicated bytes error (maybe fixed) : 0 Inconsistency in error sectors : 0

Track 09 Filename : /Users/joel/freshly_transcoded/Billie Holiday - 1933-1937 (Chronological Classics 582) [FLAC]/09 - One, Two, Button Your Shoe.flac Pre-gap length : 00:01:23

Track gain : -1.07 dB Peak : 0.606110 CRC32 hash (test run) : A35C4DEE CRC32 hash : A35C4DEE CRC32 hash (skip zero) : 3D752B58 AccurateRip signature : 51A680B3 ->Accurately ripped! (confidence 2) Statistics Read error : 0 Skipped (treated as error) : 0 Edge jitter error (maybe fixed) : 0 Atom jitter error (maybe fixed) : 0 Drift error (maybe fixed) : 0 Dropped bytes error (maybe fixed) : 0 Duplicated bytes error (maybe fixed) : 0 Inconsistency in error sectors : 0

Track 10 Filename : /Users/joel/freshly_transcoded/Billie Holiday - 1933-1937 (Chronological Classics 582) [FLAC]/10 - Let's Call a Heart a Heart.flac Pre-gap length : 00:01:17

Track gain : -0.75 dB Peak : 0.592834 CRC32 hash (test run) : 8B6224A2 CRC32 hash : 8B6224A2 CRC32 hash (skip zero) : 23E5F7A7 AccurateRip signature : 1B2C7E2F ->Accurately ripped! (confidence 2) Statistics Read error : 0 Skipped (treated as error) : 0 Edge jitter error (maybe fixed) : 0 Atom jitter error (maybe fixed) : 0 Drift error (maybe fixed) : 0 Dropped bytes error (maybe fixed) : 0 Duplicated bytes error (maybe fixed) : 0 Inconsistency in error sectors : 0

Track 11 Filename : /Users/joel/freshly_transcoded/Billie Holiday - 1933-1937 (Chronological Classics 582) [FLAC]/11 - One Never Knows, Does One?.flac Pre-gap length : 00:01:25

Track gain : 1.83 dB Peak : 0.616150 CRC32 hash (test run) : 6B294A30 CRC32 hash : 6B294A30 CRC32 hash (skip zero) : 7F372925 AccurateRip signature : 0FD74A09 ->Accurately ripped! (confidence 2) Statistics Read error : 0 Skipped (treated as error) : 0 Edge jitter error (maybe fixed) : 0 Atom jitter error (maybe fixed) : 0 Drift error (maybe fixed) : 0 Dropped bytes error (maybe fixed) : 0 Duplicated bytes error (maybe fixed) : 0 Inconsistency in error sectors : 0

Track 12 Filename : /Users/joel/freshly_transcoded/Billie Holiday - 1933-1937 (Chronological Classics 582) [FLAC]/12 - I've Got My Love to Keep Me Warm.flac Pre-gap length : 00:01:15

Track gain : -0.34 dB Peak : 0.664581 CRC32 hash (test run) : 99A873B8 CRC32 hash : 99A873B8 CRC32 hash (skip zero) : E27499B7 AccurateRip signature : 0E69DD12 ->Accurately ripped! (confidence 2) Statistics Read error : 0 Skipped (treated as error) : 0 Edge jitter error (maybe fixed) : 0 Atom jitter error (maybe fixed) : 0 Drift error (maybe fixed) : 0 Dropped bytes error (maybe fixed) : 0 Duplicated bytes error (maybe fixed) : 0 Inconsistency in error sectors : 0

Track 13 Filename : /Users/joel/freshly_transcoded/Billie Holiday - 1933-1937 (Chronological Classics 582) [FLAC]/13 - If My Heart Could Only Talk.flac Pre-gap length : 00:01:22

Track gain : 1.75 dB Peak : 0.478912 CRC32 hash (test run) : 86964489 CRC32 hash : 86964489 CRC32 hash (skip zero) : 48625B71 AccurateRip signature : 8E385A28 ->Accurately ripped! (confidence 2) Statistics Read error : 0 Skipped (treated as error) : 0 Edge jitter error (maybe fixed) : 0 Atom jitter error (maybe fixed) : 0 Drift error (maybe fixed) : 0 Dropped bytes error (maybe fixed) : 0 Duplicated bytes error (maybe fixed) : 0 Inconsistency in error sectors : 0

Track 14 Filename : /Users/joel/freshly_transcoded/Billie Holiday - 1933-1937 (Chronological Classics 582) [FLAC]/14 - Please Keep Me in Your Dreams.flac Pre-gap length : 00:01:00

Track gain : 3.13 dB Peak : 0.479950 CRC32 hash (test run) : 00634AAB CRC32 hash : 00634AAB CRC32 hash (skip zero) : 46321E2E AccurateRip signature : 75FB8AD7 ->Accurately ripped! (confidence 2) Statistics Read error : 0 Skipped (treated as error) : 0 Edge jitter error (maybe fixed) : 0 Atom jitter error (maybe fixed) : 0 Drift error (maybe fixed) : 0 Dropped bytes error (maybe fixed) : 0 Duplicated bytes error (maybe fixed) : 0 Inconsistency in error sectors : 0

Track 15 Filename : /Users/joel/freshly_transcoded/Billie Holiday - 1933-1937 (Chronological Classics 582) [FLAC]/15 - Where is the Sun?.flac Pre-gap length : 00:01:25

Track gain : 2.47 dB Peak : 0.454041 CRC32 hash (test run) : E4E43FD4 CRC32 hash : E4E43FD4 CRC32 hash (skip zero) : B8E3E66D AccurateRip signature : DBAABE50 ->Accurately ripped! (confidence 2) Statistics Read error : 0 Skipped (treated as error) : 0 Edge jitter error (maybe fixed) : 0 Atom jitter error (maybe fixed) : 0 Drift error (maybe fixed) : 0 Dropped bytes error (maybe fixed) : 0 Duplicated bytes error (maybe fixed) : 0 Inconsistency in error sectors : 0

Track 16 Filename : /Users/joel/freshly_transcoded/Billie Holiday - 1933-1937 (Chronological Classics 582) [FLAC]/16 - Let's Call the Whole Thing Off.flac Pre-gap length : 00:01:10

Track gain : 0.18 dB Peak : 0.618011 CRC32 hash (test run) : 49CC6C53 CRC32 hash : 49CC6C53 CRC32 hash (skip zero) : 0930D8F8 AccurateRip signature : A712D48C ->Accurately ripped! (confidence 2) Statistics Read error : 0 Skipped (treated as error) : 0 Edge jitter error (maybe fixed) : 0 Atom jitter error (maybe fixed) : 0 Drift error (maybe fixed) : 0 Dropped bytes error (maybe fixed) : 0 Duplicated bytes error (maybe fixed) : 0 Inconsistency in error sectors : 0

Track 17 Filename : /Users/joel/freshly_transcoded/Billie Holiday - 1933-1937 (Chronological Classics 582) [FLAC]/17 - They Can't Take that Away from Me.flac Pre-gap length : 00:01:18

Track gain : 0.14 dB Peak : 0.629181 CRC32 hash (test run) : 043C5A81 CRC32 hash : 043C5A81 CRC32 hash (skip zero) : F1CCEB67 AccurateRip signature : E7785006 ->Accurately ripped! (confidence 2) Statistics Read error : 0 Skipped (treated as error) : 0 Edge jitter error (maybe fixed) : 0 Atom jitter error (maybe fixed) : 0 Drift error (maybe fixed) : 0 Dropped bytes error (maybe fixed) : 0 Duplicated bytes error (maybe fixed) : 0 Inconsistency in error sectors : 0

Track 18 Filename : /Users/joel/freshly_transcoded/Billie Holiday - 1933-1937 (Chronological Classics 582) [FLAC]/18 - Don't Know If I'm Comin' or Goin'.flac Pre-gap length : 00:01:00

Track gain : 0.02 dB Peak : 0.704926 CRC32 hash (test run) : C658B6EA CRC32 hash : C658B6EA CRC32 hash (skip zero) : 01E8C351 AccurateRip signature : 83B3209C ->Accurately ripped! (confidence 2) Statistics Read error : 0 Skipped (treated as error) : 0 Edge jitter error (maybe fixed) : 0 Atom jitter error (maybe fixed) : 0 Drift error (maybe fixed) : 0 Dropped bytes error (maybe fixed) : 0 Duplicated bytes error (maybe fixed) : 0 Inconsistency in error sectors : 0

Track 19 Filename : /Users/joel/freshly_transcoded/Billie Holiday - 1933-1937 (Chronological Classics 582) [FLAC]/19 - Me, Myself and I.flac Pre-gap length : 00:01:25

Track gain : -0.11 dB Peak : 0.653992 CRC32 hash (test run) : BC8EB250 CRC32 hash : BC8EB250 CRC32 hash (skip zero) : 596392F7 AccurateRip signature : 22F359EC ->Accurately ripped! (confidence 2) Statistics Read error : 0 Skipped (treated as error) : 0 Edge jitter error (maybe fixed) : 0 Atom jitter error (maybe fixed) : 0 Drift error (maybe fixed) : 0 Dropped bytes error (maybe fixed) : 0 Duplicated bytes error (maybe fixed) : 0 Inconsistency in error sectors : 0

Track 20 Filename : /Users/joel/freshly_transcoded/Billie Holiday - 1933-1937 (Chronological Classics 582) [FLAC]/20 - A Sailboat in the Moonlight.flac Pre-gap length : 00:01:27

Track gain : -0.23 dB Peak : 0.750092 CRC32 hash (test run) : DD22E644 CRC32 hash : DD22E644 CRC32 hash (skip zero) : 70EB8815 AccurateRip signature : 76D8C699 ->Accurately ripped! (confidence 2) Statistics Read error : 0 Skipped (treated as error) : 0 Edge jitter error (maybe fixed) : 0 Atom jitter error (maybe fixed) : 0 Drift error (maybe fixed) : 0 Dropped bytes error (maybe fixed) : 0 Duplicated bytes error (maybe fixed) : 0 Inconsistency in error sectors : 0

Track 21 Filename : /Users/joel/freshly_transcoded/Billie Holiday - 1933-1937 (Chronological Classics 582) [FLAC]/21 - Born to Love.flac Pre-gap length : 00:01:15

Track gain : -1.26 dB Peak : 0.895294 CRC32 hash (test run) : 863E94BF CRC32 hash : 863E94BF CRC32 hash (skip zero) : BC67AF06 AccurateRip signature : 84BD2BD3 ->Accurately ripped! (confidence 2) Statistics Read error : 0 Skipped (treated as error) : 0 Edge jitter error (maybe fixed) : 0 Atom jitter error (maybe fixed) : 0 Drift error (maybe fixed) : 0 Dropped bytes error (maybe fixed) : 0 Duplicated bytes error (maybe fixed) : 0 Inconsistency in error sectors : 0

Track 22 Filename : /Users/joel/freshly_transcoded/Billie Holiday - 1933-1937 (Chronological Classics 582) [FLAC]/22 - Without Your Love.flac Pre-gap length : 00:01:20

Track gain : -2.22 dB Peak : 0.823822 CRC32 hash (test run) : 600CFEA0 CRC32 hash : 600CFEA0 CRC32 hash (skip zero) : 5A0DF058 AccurateRip signature : 3A937666 ->Accurately ripped! (confidence 2) Statistics Read error : 0 Skipped (treated as error) : 0 Edge jitter error (maybe fixed) : 0 Atom jitter error (maybe fixed) : 0 Drift error (maybe fixed) : 0 Dropped bytes error (maybe fixed) : 0 Duplicated bytes error (maybe fixed) : 0 Inconsistency in error sectors : 0

Track 23 Filename : /Users/joel/freshly_transcoded/Billie Holiday - 1933-1937 (Chronological Classics 582) [FLAC]/23 - Getting Some Fun Out of Life.flac Pre-gap length : 00:01:05

Track gain : -3.32 dB Peak : 0.882904 CRC32 hash (test run) : B28EBA43 CRC32 hash : B28EBA43 CRC32 hash (skip zero) : 2C0B320E AccurateRip signature : 67255D47 ->Accurately ripped! (confidence 2) Statistics Read error : 0 Skipped (treated as error) : 0 Edge jitter error (maybe fixed) : 0 Atom jitter error (maybe fixed) : 0 Drift error (maybe fixed) : 0 Dropped bytes error (maybe fixed) : 0 Duplicated bytes error (maybe fixed) : 0 Inconsistency in error sectors : 0

Track 24 Filename : /Users/joel/freshly_transcoded/Billie Holiday - 1933-1937 (Chronological Classics 582) [FLAC]/24 - Who Wants Love?.flac Pre-gap length : 00:01:15

Track gain : -2.28 dB Peak : 0.741180 CRC32 hash (test run) : A892AD4D CRC32 hash : A892AD4D CRC32 hash (skip zero) : 85876047 AccurateRip signature : 94AA4558 ->Accurately ripped! (confidence 2) Statistics Read error : 0 Skipped (treated as error) : 0 Edge jitter error (maybe fixed) : 0 Atom jitter error (maybe fixed) : 0 Drift error (maybe fixed) : 0 Dropped bytes error (maybe fixed) : 0 Duplicated bytes error (maybe fixed) : 0 Inconsistency in error sectors : 0

No errors occurred

End of status report
 
REM DATE 1991REM GENRE JazzPERFORMER "Billie Holiday And Her Orchestra"TITLE "1933-1937 {Chronological Classics, 582}"REM DISCID 6E0FCA18FILE "01. Your Mother's Son-In-Law.flac" WAVE TRACK 01 AUDIO TITLE "Your Mother's Son-In-Law" INDEX 00 00:00:00 INDEX 01 00:00:33 TRACK 02 AUDIO TITLE "Riffin' The Scotch" INDEX 00 02:43:50FILE "02. Riffin' The Scotch.flac" WAVE INDEX 01 00:00:00 TRACK 03 AUDIO TITLE "Did I Remember?" INDEX 00 02:34:31FILE "03. Did I Remember.flac" WAVE INDEX 01 00:00:00 TRACK 04 AUDIO TITLE "No Regrets" INDEX 00 02:49:55FILE "04. No Regrets.flac" WAVE INDEX 01 00:00:00 TRACK 05 AUDIO TITLE "Summertime" INDEX 00 02:36:05FILE "05. Summertime.flac" WAVE INDEX 01 00:00:00 TRACK 06 AUDIO TITLE "Billie's Blues" INDEX 00 02:53:27FILE "06. Billie's Blues.flac" WAVE INDEX 01 00:00:00 TRACK 07 AUDIO TITLE "A Fine Romance" INDEX 00 02:37:67FILE "07. A Fine Romance.flac" WAVE INDEX 01 00:00:00 TRACK 08 AUDIO TITLE "I Can't Pretend" INDEX 00 02:49:65FILE "08. I Can't Pretend.flac" WAVE INDEX 01 00:00:00 TRACK 09 AUDIO TITLE "One, Two, Button Your Shoe" INDEX 00 03:03:55FILE "09. One, Two, Button Your Shoe.flac" WAVE INDEX 01 00:00:00 TRACK 10 AUDIO TITLE "Let's Call A Heart A Heart" INDEX 00 02:47:70FILE "10. Let's Call A Heart A Heart.flac" WAVE INDEX 01 00:00:00 TRACK 11 AUDIO TITLE "One Never Knows, Does One?" INDEX 00 03:01:20FILE "11. One Never Knows, Does One.flac" WAVE INDEX 01 00:00:00 TRACK 12 AUDIO TITLE "I've Got My Love To Keep Me Warm" INDEX 00 03:02:38FILE "12. I've Got My Love To Keep Me Warm.flac" WAVE INDEX 01 00:00:00 TRACK 13 AUDIO TITLE "If My Heart Could Only Talk" INDEX 00 02:54:40FILE "13. If My Heart Could Only Talk.flac" WAVE INDEX 01 00:00:00 TRACK 14 AUDIO TITLE "Please Keep Me In Your Dreams" INDEX 00 03:02:58FILE "14. Please Keep Me In Your Dreams.flac" WAVE INDEX 01 00:00:00 TRACK 15 AUDIO TITLE "Where Is The Sun?" INDEX 00 02:15:27FILE "15. Where Is The Sun.flac" WAVE INDEX 01 00:00:00 TRACK 16 AUDIO TITLE "Let's Call The Whole Thing Off" INDEX 00 02:45:53FILE "16. Let's Call The Whole Thing Off.flac" WAVE INDEX 01 00:00:00 TRACK 17 AUDIO TITLE "They Can't Take That Away From Me" INDEX 00 02:36:67FILE "17. They Can't Take That Away From Me.flac" WAVE INDEX 01 00:00:00 TRACK 18 AUDIO TITLE "Don't Know If I'm Comin' Or Goin'" INDEX 00 03:02:02FILE "18. Don't Know If I'm Comin' Or Goin'.flac" WAVE INDEX 01 00:00:00 TRACK 19 AUDIO TITLE "Me, Myself And I" INDEX 00 02:45:03FILE "19. Me, Myself And I.flac" WAVE INDEX 01 00:00:00 TRACK 20 AUDIO TITLE "A Sailboat In The Moonlight" INDEX 00 02:35:20FILE "20. A Sailboat In The Moonlight.flac" WAVE INDEX 01 00:00:00 TRACK 21 AUDIO TITLE "Born To Love" INDEX 00 02:48:68FILE "21. Born To Love.flac" WAVE INDEX 01 00:00:00 TRACK 22 AUDIO TITLE "Without Your Love" INDEX 00 02:38:40FILE "22. Without Your Love.flac" WAVE INDEX 01 00:00:00 TRACK 23 AUDIO TITLE "Getting Some Fun Out Of Life" INDEX 00 02:52:07FILE "23. Getting Some Fun Out Of Life.flac" WAVE INDEX 01 00:00:00 TRACK 24 AUDIO TITLE "Who Wants Love?" INDEX 00 03:01:38FILE "24. Who Wants Love.flac" WAVE INDEX 01 00:00:00


Трекер:  [ 21-Фев-2012 12:19 ]

  

Скачать .torrent

Размер .torrent файла 17 KB


Размер: 190 MB
Хэш (hash) релиза: b7736c35b89866dc96dfb50d8e69305658ac965e

Еще никто не оставлял запись к записи скачать торрент Billie Holiday And Her Orchestra - 1933-1937 {The Chronological Classics, 582} - 1991, FLAC . Будь первым!

!Обратная связь