Скачать через торрент музыку Billie Holiday And Her Orchestra - 1937-1939 {The Chronological Classics, 592} - 1991, FLAC бесплатно без регистрации torrent

Если у вас наблюдаются проблемы со скриншотами, переходом по ссылками, скачиванием торрентов - проблемы в блокировщике рекламы AdBlock. #хорошегоДня!


Статистика раздачи
Размер:  209 MB   |    Зарегистрирован:  5 лет 7 месяцев   |    .torrent скачан:  51 раз   |   
Раздают:  1  
   
Загрузка...
 
Автор Сообщение

Umakiro

avatar Umakiro


Billie Holiday And Her Orchestra – 1937-1939 {The Chronological Classics, 592}

Жанр: Vocal Jazz
Год издания диска: 1991
Издатель (лейбл): Classics
Номер по каталогу: 592
Аудиокодек: FLAC (*.flac)
Тип рипа: tracks+.cue
Битрейт аудио: lossless
Продолжительность: 65:53
Источник: вата
Наличие сканов в содержимом раздачи: да

Треклист:
01. Trav'lin' All Alone (2:14)
02. He's Funny That Way (2:40)
03. Now They Call It Swing (3:00)
04. On The Sentimental Side (3:05)
05. Back In Your Own Back Yard (2:42)
06. When A Woman Loves A Man (2:26)
07. You Go To My Head (2:55)
08. The Moon Looks Down And Laughs (2:57)
09. If I Were You (2:25)
10. Forget It You can (2:51)
11. Having Myself A Time (2:31)
12. Says My Heart (2:53)
13. I Wish I Had You (2:50)
14. I'm Gonna Lock My Heart (And Throw Away The Key) (2:08)
15. Any Old Time (3:12)
16. The Very Thought Of You (2:46)
17. I Can't Get Started (2:48)
18. I've Got A Date With A Dream (2:44)
19. You Can't Be Main (And Someone Else's Too) (2:22)
20. That's All I Ask Of You (2:57)
21. Dream Of Life (2:45)
22. You're Too Lovely To Last (2:50)
23. Under A Blue Jungle Moon (2:57)
24. Everything Happens For The Best (2:51)
 
 
Exact Audio Copy V1.0 beta 3 from 29. August 2011

EAC extraction logfile from 31. January 2012, 15:31

Billie Holiday / Billie Holiday 1937-1939

Used drive : Optiarc DVD RW AD-7260S Adapter: 3 ID: 0

Read mode : SecureUtilize accurate stream : YesDefeat audio cache : YesMake use of C2 pointers : No

Read offset correction : 48Overread into Lead-In and Lead-Out : NoFill up missing offset samples with silence : YesDelete leading and trailing silent blocks : NoNull samples used in CRC calculations : YesUsed interface : Native Win32 interface for Win NT & 2000Gap handling : Appended to previous track

Used output format : User Defined EncoderSelected bitrate : 1024 kBit/sQuality : HighAdd ID3 tag : NoCommand line compressor : C:\Program Files (x86)\Exact Audio Copy\Flac\flac.exeAdditional command line options : -8 -V -T "ARTIST=%artist%" -T "TITLE=%title%" -T "ALBUM=%albumtitle%" -T "DATE=%year%" -T "TRACKNUMBER=%tracknr%" -T "GENRE=%genre%" -T "PERFORMER=%albuminterpret%" -T "COMPOSER=%composer%" -T "ALBUMARTIST=%albumartist%" -T "DISCNUMBER=%cdnumber%" -T "TOTALDISCS=%totalcds%" -T "TOTALTRACKS=%numtracks%" -T "COMMENT=%comment%" %source% -o %dest%

TOC of the extracted CD

Track | Start | Length | Start sector | End sector --------------------------------------------------------- 1 | 0:00.33 | 2:14.35 | 33 | 10117 2 | 2:14.68 | 2:40.05 | 10118 | 22122 3 | 4:54.73 | 3:00.20 | 22123 | 35642 4 | 7:55.18 | 3:05.10 | 35643 | 49527 5 | 11:00.28 | 2:42.17 | 49528 | 61694 6 | 13:42.45 | 2:25.70 | 61695 | 72639 7 | 16:08.40 | 2:54.40 | 72640 | 85729 8 | 19:03.05 | 2:57.10 | 85730 | 99014 9 | 22:00.15 | 2:25.30 | 99015 | 109919 10 | 24:25.45 | 2:51.20 | 109920 | 122764 11 | 27:16.65 | 2:31.28 | 122765 | 134117 12 | 29:48.18 | 2:52.50 | 134118 | 147067 13 | 32:40.68 | 2:49.50 | 147068 | 159792 14 | 35:30.43 | 2:08.35 | 159793 | 169427 15 | 37:39.03 | 3:12.10 | 169428 | 183837 16 | 40:51.13 | 2:46.30 | 183838 | 196317 17 | 43:37.43 | 2:48.25 | 196318 | 208942 18 | 46:25.68 | 2:44.35 | 208943 | 221277 19 | 49:10.28 | 2:21.70 | 221278 | 231922 20 | 51:32.23 | 2:57.37 | 231923 | 245234 21 | 54:29.60 | 2:45.35 | 245235 | 257644 22 | 57:15.20 | 2:49.70 | 257645 | 270389 23 | 60:05.15 | 2:57.20 | 270390 | 283684 24 | 63:02.35 | 2:50.65 | 283685 | 296499

Track 1

Filename C:\Rips\01 - Trav'lin' All Alone.wav

Pre-gap length 0:00:02.44

Peak level 87.6 % Extraction speed 1.7 X Track quality 99.9 % Test CRC D96D46A4 Copy CRC D96D46A4 Track not present in AccurateRip database Copy OK

Track 2

Filename C:\Rips\02 - He's Funny That Way.wav

Pre-gap length 0:00:01.20

Peak level 81.9 % Extraction speed 2.3 X Track quality 100.0 % Test CRC D67216B5 Copy CRC D67216B5 Track not present in AccurateRip database Copy OK

Track 3

Filename C:\Rips\03 - Now They Call It Swing.wav

Pre-gap length 0:00:00.84

Peak level 86.9 % Extraction speed 2.2 X Track quality 99.9 % Test CRC 4F5CFCBF Copy CRC 4F5CFCBF Track not present in AccurateRip database Copy OK

Track 4

Filename C:\Rips\04 - On The Sentimental Side.wav

Pre-gap length 0:00:01.00

Peak level 85.4 % Extraction speed 2.7 X Track quality 100.0 % Test CRC 1CC6E433 Copy CRC 1CC6E433 Track not present in AccurateRip database Copy OK

Track 5

Filename C:\Rips\05 - Back In Our Back Yard.wav

Pre-gap length 0:00:00.86

Peak level 99.8 % Extraction speed 2.8 X Track quality 100.0 % Test CRC 87DDC47B Copy CRC 87DDC47B Track not present in AccurateRip database Copy OK

Track 6

Filename C:\Rips\06 - When A Woman Loves A Man.wav

Pre-gap length 0:00:01.22

Peak level 89.3 % Extraction speed 2.9 X Track quality 100.0 % Test CRC FE8CEF6B Copy CRC FE8CEF6B Track not present in AccurateRip database Copy OK

Track 7

Filename C:\Rips\07 - You Go To My Head.wav

Pre-gap length 0:00:00.93

Peak level 89.8 % Extraction speed 3.1 X Track quality 100.0 % Test CRC BB8B0576 Copy CRC BB8B0576 Track not present in AccurateRip database Copy OK

Track 8

Filename C:\Rips\08 - The Moon Looks Down And Laughs.wav

Pre-gap length 0:00:01.16

Peak level 77.2 % Extraction speed 3.3 X Track quality 100.0 % Test CRC D6026F34 Copy CRC D6026F34 Track not present in AccurateRip database Copy OK

Track 9

Filename C:\Rips\09 - If I Were You.wav

Pre-gap length 0:00:01.20

Peak level 82.7 % Extraction speed 2.7 X Track quality 99.9 % Test CRC 6A898D75 Copy CRC 6A898D75 Track not present in AccurateRip database Copy OK

Track 10

Filename C:\Rips\10 - Forget It You can.wav

Pre-gap length 0:00:00.96

Peak level 71.2 % Extraction speed 3.4 X Track quality 100.0 % Test CRC DE79613A Copy CRC DE79613A Track not present in AccurateRip database Copy OK

Track 11

Filename C:\Rips\11 - Having Myself A Time.wav

Pre-gap length 0:00:00.46

Peak level 78.6 % Extraction speed 2.9 X Track quality 99.9 % Test CRC 80332F57 Copy CRC 80332F57 Track not present in AccurateRip database Copy OK

Track 12

Filename C:\Rips\12 - Says My Heart.wav

Pre-gap length 0:00:00.66

Peak level 81.5 % Extraction speed 3.7 X Track quality 100.0 % Test CRC 0B42CB5B Copy CRC 0B42CB5B Track not present in AccurateRip database Copy OK

Track 13

Filename C:\Rips\13 - I Wish I Had You.wav

Pre-gap length 0:00:01.77

Peak level 84.1 % Extraction speed 3.2 X Track quality 99.9 % Test CRC E3CB8E9E Copy CRC E3CB8E9E Track not present in AccurateRip database Copy OK

Track 14

Filename C:\Rips\14 - I'm Gonna Lock My Heart (And Throw Away The Key).wav

Pre-gap length 0:00:01.17

Peak level 76.7 % Extraction speed 2.9 X Track quality 99.9 % Test CRC 1092DA92 Copy CRC 1092DA92 Track not present in AccurateRip database Copy OK

Track 15

Filename C:\Rips\15 - Any Old Time.wav

Pre-gap length 0:00:01.04

Peak level 81.5 % Extraction speed 4.0 X Track quality 100.0 % Test CRC 554B14A6 Copy CRC 554B14A6 Track not present in AccurateRip database Copy OK

Track 16

Filename C:\Rips\16 - The Very Thought Of You.wav

Pre-gap length 0:00:00.84

Peak level 63.1 % Extraction speed 4.0 X Track quality 100.0 % Test CRC AA28DE4B Copy CRC AA28DE4B Track not present in AccurateRip database Copy OK

Track 17

Filename C:\Rips\17 - I Can't Get Started.wav

Pre-gap length 0:00:00.84

Peak level 69.6 % Extraction speed 3.5 X Track quality 99.9 % Test CRC 46654014 Copy CRC 46654014 Track not present in AccurateRip database Copy OK

Track 18

Filename C:\Rips\18 - I've Got A Date With A Dream.wav

Pre-gap length 0:00:00.60

Peak level 84.6 % Extraction speed 4.2 X Track quality 100.0 % Test CRC 4916BAED Copy CRC 4916BAED Track not present in AccurateRip database Copy OK

Track 19

Filename C:\Rips\19 - You Can't Be Main (And Someone Else's Too).wav

Pre-gap length 0:00:01.17

Peak level 83.9 % Extraction speed 4.2 X Track quality 100.0 % Test CRC EDA12693 Copy CRC EDA12693 Track not present in AccurateRip database Copy OK

Track 20

Filename C:\Rips\20 - That's All I Ask Of You.wav

Pre-gap length 0:00:00.90

Peak level 96.2 % Extraction speed 4.4 X Track quality 100.0 % Test CRC 09DDDE76 Copy CRC 09DDDE76 Track not present in AccurateRip database Copy OK

Track 21

Filename C:\Rips\21 - Dream Of Life.wav

Pre-gap length 0:00:00.49

Peak level 95.2 % Extraction speed 4.5 X Track quality 100.0 % Test CRC 83B57C46 Copy CRC 83B57C46 Track not present in AccurateRip database Copy OK

Track 22

Filename C:\Rips\22 - You're Too Lovely To Last.wav

Pre-gap length 0:00:00.89

Peak level 99.9 % Extraction speed 4.5 X Track quality 100.0 % Test CRC 658962F7 Copy CRC 658962F7 Track not present in AccurateRip database Copy OK

Track 23

Filename C:\Rips\23 - Under The Blue Jungle Moon.wav

Pre-gap length 0:00:00.89

Peak level 99.9 % Extraction speed 4.0 X Track quality 99.9 % Test CRC 28467B36 Copy CRC 28467B36 Track not present in AccurateRip database Copy OK

Track 24

Filename C:\Rips\24 - Everything Happens For The Best.wav

Pre-gap length 0:00:00.80

Peak level 99.9 % Extraction speed 4.8 X Track quality 100.0 % Test CRC 9EF8F1C7 Copy CRC 9EF8F1C7 Track not present in AccurateRip database Copy OK

None of the tracks are present in the AccurateRip database

No errors occurred

End of status report

==== Log checksum D078D0EA7D5EA553A767132EB8D285F18526C289FC07A8D68A7414A13AE1E0C4 ====
 
REM DATE 1991REM GENRE JazzREM DISCID 670F7118REM COMMENT "ExactAudioCopy v1.0b3"PERFORMER "Billie Holiday And Her Orchestra"TITLE "1937-1939 {Chronological Classics, 592}"FILE "01. Trav'lin' All Alone.flac" WAVE TRACK 01 AUDIO PREGAP 00:00:33 INDEX 01 00:00:00 TRACK 02 AUDIO INDEX 00 02:13:20FILE "02. He's Funny That Way.flac" WAVE INDEX 01 00:00:00 TRACK 03 AUDIO INDEX 00 02:39:17FILE "03. Now They Call It Swing.flac" WAVE INDEX 01 00:00:00 TRACK 04 AUDIO INDEX 00 02:59:20FILE "04. On The Sentimental Side.flac" WAVE INDEX 01 00:00:00 TRACK 05 AUDIO INDEX 00 03:04:20FILE "05. Back In Your Own Back Yard.flac" WAVE INDEX 01 00:00:00 TRACK 06 AUDIO INDEX 00 02:41:00FILE "06. When A Woman Loves A Man.flac" WAVE INDEX 01 00:00:00 TRACK 07 AUDIO INDEX 00 02:25:00FILE "07. You Go To My Head.flac" WAVE INDEX 01 00:00:00 TRACK 08 AUDIO INDEX 00 02:53:28FILE "08. The Moon Looks Down And Laughs.flac" WAVE INDEX 01 00:00:00 TRACK 09 AUDIO INDEX 00 02:55:70FILE "09. If I Were You.flac" WAVE INDEX 01 00:00:00 TRACK 10 AUDIO INDEX 00 02:24:33FILE "10. Forget It You can.flac" WAVE INDEX 01 00:00:00 TRACK 11 AUDIO INDEX 00 02:50:60FILE "11. Having Myself A Time.flac" WAVE INDEX 01 00:00:00 TRACK 12 AUDIO INDEX 00 02:30:53FILE "12. Says My Heart.flac" WAVE INDEX 01 00:00:00 TRACK 13 AUDIO INDEX 00 02:50:67FILE "13. I Wish I Had You.flac" WAVE INDEX 01 00:00:00 TRACK 14 AUDIO INDEX 00 02:48:37FILE "14. I'm Gonna Lock My Heart (And Throw Away The Key).flac" WAVE INDEX 01 00:00:00 TRACK 15 AUDIO INDEX 00 02:07:32FILE "15. Any Old Time.flac" WAVE INDEX 01 00:00:00 TRACK 16 AUDIO INDEX 00 03:11:22FILE "16. The Very Thought Of You.flac" WAVE INDEX 01 00:00:00 TRACK 17 AUDIO INDEX 00 02:45:42FILE "17. I Can't Get Started.flac" WAVE INDEX 01 00:00:00 TRACK 18 AUDIO INDEX 00 02:47:55FILE "18. I've Got A Date With A Dream.flac" WAVE INDEX 01 00:00:00 TRACK 19 AUDIO INDEX 00 02:43:22FILE "19. You Can't Be Main (And Someone Else's Too).flac" WAVE INDEX 01 00:00:00 TRACK 20 AUDIO INDEX 00 02:21:02FILE "20. That's All I Ask Of You.flac" WAVE INDEX 01 00:00:00 TRACK 21 AUDIO INDEX 00 02:57:00FILE "21. Dream Of Life.flac" WAVE INDEX 01 00:00:00 TRACK 22 AUDIO INDEX 00 02:44:43FILE "22. You're Too Lovely To Last.flac" WAVE INDEX 01 00:00:00 TRACK 23 AUDIO INDEX 00 02:49:03FILE "23. Under A Blue Jungle Moon.flac" WAVE INDEX 01 00:00:00 TRACK 24 AUDIO INDEX 00 02:56:35FILE "24. Everything Happens For The Best.flac" WAVE INDEX 01 00:00:00
 

Трекер:  [ 21-Фев-2012 12:19 ]

  

Скачать .torrent

Размер .torrent файла 18 KB


Размер: 209 MB
Хэш (hash) релиза: 17c3f09f5c4e5809f02210f1894bf4835ff4bbfd

Еще никто не оставлял запись к записи скачать торрент Billie Holiday And Her Orchestra - 1937-1939 {The Chronological Classics, 592} - 1991, FLAC . Будь первым!

!Обратная связь