Скачать через торрент музыку Billie Holiday - Billie Holiday At Storyville бесплатно без регистрации torrent

Если у вас наблюдаются проблемы со скриншотами, переходом по ссылками, скачиванием торрентов - проблемы в блокировщике рекламы AdBlock. #хорошегоДня!


Статистика раздачи
Размер:  134 MB   |    Зарегистрирован:  5 лет 8 месяцев   |    .torrent скачан:  38 раз   |   
Раздают:  1  
   
Загрузка...
 
Автор Сообщение

Umakiro

avatar Umakiro


Billie Holiday – Billie Holiday At Storyville (1951/1953)

Жанр: Vocal Jazz
Год издания диска: 1999
Издатель (лейбл): 1201 Music
Номер по каталогу: 9001-2
Аудиокодек: FLAC (*.flac)
Тип рипа: tracks+.cue
Битрейт аудио: lossless
Продолжительность: 36:36
Источник: вата
Наличие сканов в содержимом раздачи: back, cd

Треклист:
01. Intro (1:13)
02. I Cover The Waterfront (3:25)
03. Too Marvelous For Words (2:14)
04. I Love You, Porgy (3:10)
05. Them There Eyes (1:45)
06. Willow, Weep For Me (3:55)
07. Intro 2 (0:35)
08. I Only Have Eyes For You (1:45)
09. You Go To My Head (3:56)
10. He's Funny That Way (3:08)
11. Billie's Blues (3:30)
12. Miss Brown To You (2:01)
13. Lover, Come Back To Me (2:22)
14. Ain't Nobody's Business If I Do (2:24)
15. You're Driving Me Crazy (1:13)
 
 
Exact Audio Copy V0.99 prebeta 5 from 4. May 2009

EAC extraction logfile from 27. December 2009, 21:41

Billie Holiday / Billie Holiday at Storyville

Used drive : PLEXTOR DVDR PX-760A Adapter: 0 ID: 0

Read mode : SecureUtilize accurate stream : YesDefeat audio cache : YesMake use of C2 pointers : No

Read offset correction : 30Overread into Lead-In and Lead-Out : NoFill up missing offset samples with silence : YesDelete leading and trailing silent blocks : NoNull samples used in CRC calculations : YesUsed interface : Native Win32 interface for Win NT & 2000Gap handling : Appended to previous track

Used output format : Internal WAV RoutinesSample format : 44.100 Hz; 16 Bit; Stereo

TOC of the extracted CD

Track | Start | Length | Start sector | End sector --------------------------------------------------------- 1 | 0:00.00 | 1:13.07 | 0 | 5481 2 | 1:13.07 | 3:25.10 | 5482 | 20866 3 | 4:38.17 | 2:13.43 | 20867 | 30884 4 | 6:51.60 | 3:09.47 | 30885 | 45106 5 | 10:01.32 | 1:44.68 | 45107 | 52974 6 | 11:46.25 | 3:55.07 | 52975 | 70606 7 | 15:41.32 | 0:35.35 | 70607 | 73266 8 | 16:16.67 | 1:44.60 | 73267 | 81126 9 | 18:01.52 | 3:55.53 | 81127 | 98804 10 | 21:57.30 | 3:08.07 | 98805 | 112911 11 | 25:05.37 | 3:30.33 | 112912 | 128694 12 | 28:35.70 | 2:01.22 | 128695 | 137791 13 | 30:37.17 | 2:21.48 | 137792 | 148414 14 | 32:58.65 | 2:24.30 | 148415 | 159244 15 | 35:23.20 | 1:13.07 | 159245 | 164726

Track 1

Filename L:\Torrents\Billie Holiday - Billie Holiday at Storyville (1999) [FLAC]\01 - Intro.wav

Pre-gap length 0:00:02.00

Peak level 84.9 % Track quality 100.0 % Test CRC 5AE1D6DC Copy CRC 5AE1D6DC Cannot be verified as accurate (confidence 1) [4C7FB605], AccurateRip returned [09C3CFFB] Copy OK

Track 2

Filename L:\Torrents\Billie Holiday - Billie Holiday at Storyville (1999) [FLAC]\02 - I Cover the Waterfront.wav

Peak level 88.3 % Track quality 100.0 % Test CRC 7E8EF3F2 Copy CRC 7E8EF3F2 Cannot be verified as accurate (confidence 1) [DBEFCE0D], AccurateRip returned [D89AB244] Copy OK

Track 3

Filename L:\Torrents\Billie Holiday - Billie Holiday at Storyville (1999) [FLAC]\03 - Too Marvelous for Words.wav

Peak level 83.5 % Track quality 100.0 % Test CRC A24EE42E Copy CRC A24EE42E Cannot be verified as accurate (confidence 1) [97F55205], AccurateRip returned [66A3F06C] Copy OK

Track 4

Filename L:\Torrents\Billie Holiday - Billie Holiday at Storyville (1999) [FLAC]\04 - I Love You, Porgy.wav

Peak level 86.0 % Track quality 100.0 % Test CRC CE7D6A95 Copy CRC CE7D6A95 Cannot be verified as accurate (confidence 1) [715457D4], AccurateRip returned [B632C28C] Copy OK

Track 5

Filename L:\Torrents\Billie Holiday - Billie Holiday at Storyville (1999) [FLAC]\05 - Them There Eyes.wav

Peak level 81.3 % Track quality 100.0 % Test CRC 5635F51C Copy CRC 5635F51C Cannot be verified as accurate (confidence 1) [0D5CB18D], AccurateRip returned [4E9BA1A4] Copy OK

Track 6

Filename L:\Torrents\Billie Holiday - Billie Holiday at Storyville (1999) [FLAC]\06 - Willow, Weep for Me.wav

Peak level 99.2 % Track quality 99.9 % Test CRC F96162C7 Copy CRC F96162C7 Cannot be verified as accurate (confidence 1) [CD55C197], AccurateRip returned [1615EF05] Copy OK

Track 7

Filename L:\Torrents\Billie Holiday - Billie Holiday at Storyville (1999) [FLAC]\07 - Intro 2.wav

Peak level 83.2 % Track quality 100.0 % Test CRC 9392CFA0 Copy CRC 9392CFA0 Cannot be verified as accurate (confidence 1) [83FC0F43], AccurateRip returned [B06E92F5] Copy OK

Track 8

Filename L:\Torrents\Billie Holiday - Billie Holiday at Storyville (1999) [FLAC]\08 - I Only Have Eyes for You.wav

Peak level 76.8 % Track quality 100.0 % Test CRC 7EB160AF Copy CRC 7EB160AF Cannot be verified as accurate (confidence 1) [A0799A20], AccurateRip returned [C6165850] Copy OK

Track 9

Filename L:\Torrents\Billie Holiday - Billie Holiday at Storyville (1999) [FLAC]\09 - You Go to My Head.wav

Peak level 79.3 % Track quality 100.0 % Test CRC B111BC6A Copy CRC B111BC6A Cannot be verified as accurate (confidence 1) [63AD91DF], AccurateRip returned [E2D6D8E7] Copy OK

Track 10

Filename L:\Torrents\Billie Holiday - Billie Holiday at Storyville (1999) [FLAC]\10 - He's Funny That Way.wav

Pre-gap length 0:00:00.43

Peak level 59.2 % Track quality 100.0 % Test CRC 7A37612D Copy CRC 7A37612D Cannot be verified as accurate (confidence 1) [775B254F], AccurateRip returned [BCDC0AB6] Copy OK

Track 11

Filename L:\Torrents\Billie Holiday - Billie Holiday at Storyville (1999) [FLAC]\11 - Billie's Blues.wav

Pre-gap length 0:00:01.52

Peak level 62.7 % Track quality 100.0 % Test CRC 3A9D3EC5 Copy CRC 3A9D3EC5 Cannot be verified as accurate (confidence 1) [5E24A057], AccurateRip returned [ABEAEC8B] Copy OK

Track 12

Filename L:\Torrents\Billie Holiday - Billie Holiday at Storyville (1999) [FLAC]\12 - Miss Brown to You.wav

Pre-gap length 0:00:01.20

Peak level 60.4 % Track quality 100.0 % Test CRC 98F4ED1E Copy CRC 98F4ED1E Cannot be verified as accurate (confidence 1) [3468E2E5], AccurateRip returned [079246D3] Copy OK

Track 13

Filename L:\Torrents\Billie Holiday - Billie Holiday at Storyville (1999) [FLAC]\13 - Lover, Come Back to Me.wav

Pre-gap length 0:00:02.05

Peak level 60.0 % Track quality 100.0 % Test CRC BBC5DFE0 Copy CRC BBC5DFE0 Cannot be verified as accurate (confidence 1) [5CDE7794], AccurateRip returned [79F0E5A2] Copy OK

Track 14

Filename L:\Torrents\Billie Holiday - Billie Holiday at Storyville (1999) [FLAC]\14 - Ain't Nobody's Business If I Do.wav

Pre-gap length 0:00:01.03

Peak level 58.8 % Track quality 100.0 % Test CRC D0638ED4 Copy CRC D0638ED4 Cannot be verified as accurate (confidence 1) [B608A4D6], AccurateRip returned [DF9C535D] Copy OK

Track 15

Filename L:\Torrents\Billie Holiday - Billie Holiday at Storyville (1999) [FLAC]\15 - You're Driving Me Crazy.wav

Pre-gap length 0:00:01.28

Peak level 62.4 % Track quality 100.0 % Test CRC 80C3666E Copy CRC 80C3666E Cannot be verified as accurate (confidence 1) [6752B3B6], AccurateRip returned [9D574B4F] Copy OK

No tracks could be verified as accurateYou may have a different pressing from the one(s) in the database

No errors occurred

End of status report
 
REM GENRE JazzREM DATE 1999REM DISCID C808940FREM COMMENT "ExactAudioCopy v0.99pb5"PERFORMER "Billie Holiday"TITLE "Billie Holiday At Storyville"FILE "01. Intro.flac" WAVE TRACK 01 AUDIO TITLE "Intro" PERFORMER "Billie Holiday" INDEX 01 00:00:00FILE "02. I Cover The Waterfront.flac" WAVE TRACK 02 AUDIO TITLE "I Cover The Waterfront" PERFORMER "Billie Holiday" INDEX 01 00:00:00FILE "03. Too Marvelous For Words.flac" WAVE TRACK 03 AUDIO TITLE "Too Marvelous For Words" PERFORMER "Billie Holiday" INDEX 01 00:00:00FILE "04. I Love You, Porgy.flac" WAVE TRACK 04 AUDIO TITLE "I Love You, Porgy" PERFORMER "Billie Holiday" INDEX 01 00:00:00FILE "05. Them There Eyes.flac" WAVE TRACK 05 AUDIO TITLE "Them There Eyes" PERFORMER "Billie Holiday" INDEX 01 00:00:00FILE "06. Willow, Weep For Me.flac" WAVE TRACK 06 AUDIO TITLE "Willow, Weep For Me" PERFORMER "Billie Holiday" INDEX 01 00:00:00FILE "07. Intro 2.flac" WAVE TRACK 07 AUDIO TITLE "Intro 2" PERFORMER "Billie Holiday" INDEX 01 00:00:00FILE "08. I Only Have Eyes For You.flac" WAVE TRACK 08 AUDIO TITLE "I Only Have Eyes For You" PERFORMER "Billie Holiday" INDEX 01 00:00:00FILE "09. You Go To My Head.flac" WAVE TRACK 09 AUDIO TITLE "You Go To My Head" PERFORMER "Billie Holiday" INDEX 01 00:00:00 TRACK 10 AUDIO TITLE "He's Funny That Way" PERFORMER "Billie Holiday" INDEX 00 03:55:10FILE "10. He's Funny That Way.flac" WAVE INDEX 01 00:00:00 TRACK 11 AUDIO TITLE "Billie's Blues" PERFORMER "Billie Holiday" INDEX 00 03:06:30FILE "11. Billie's Blues.flac" WAVE INDEX 01 00:00:00 TRACK 12 AUDIO TITLE "Miss Brown To You" PERFORMER "Billie Holiday" INDEX 00 03:29:13FILE "12. Miss Brown To You.flac" WAVE INDEX 01 00:00:00 TRACK 13 AUDIO TITLE "Lover, Come Back To Me" PERFORMER "Billie Holiday" INDEX 00 01:59:17FILE "13. Lover, Come Back To Me.flac" WAVE INDEX 01 00:00:00 TRACK 14 AUDIO TITLE "Ain't Nobody's Business If I Do" PERFORMER "Billie Holiday" INDEX 00 02:20:45FILE "14. Ain't Nobody's Business If I Do.flac" WAVE INDEX 01 00:00:00 TRACK 15 AUDIO TITLE "You're Driving Me Crazy" PERFORMER "Billie Holiday" INDEX 00 02:23:02FILE "15. You're Driving Me Crazy.flac" WAVE INDEX 01 00:00:00
 
[CUETools log; Date: 20.02.2012 16:00:30; Version: 2.0.9][CTDB TOCID: tljgpPMrABrGnMtERutEXcC1L8s-] disk not present in database.[AccurateRip ID: 00144edc-00e838a6-c808940f] found.Track [ CRC ] Status 01 [4c7fb605] (2/2) Accurately ripped 02 [dbefce0d] (2/2) Accurately ripped 03 [97f55205] (2/2) Accurately ripped 04 [715457d4] (2/2) Accurately ripped 05 [0d5cb18d] (2/2) Accurately ripped 06 [cd55c197] (2/2) Accurately ripped 07 [83fc0f43] (2/2) Accurately ripped 08 [a0799a20] (2/2) Accurately ripped 09 [63ad91df] (2/2) Accurately ripped 10 [775b254f] (2/2) Accurately ripped 11 [5e24a057] (2/2) Accurately ripped 12 [3468e2e5] (2/2) Accurately ripped 13 [5cde7794] (2/2) Accurately ripped 14 [b608a4d6] (2/2) Accurately ripped 15 [6752b3b6] (2/2) Accurately ripped

Track Peak [ CRC32 ] [W/O NULL] [ LOG ] -- 99,2 [E3B9ECFF] [4655CD81] 01 84,9 [5AE1D6DC] [58A9A022] CRC32 02 88,3 [7E8EF3F2] [E5A0EC2A] CRC32 03 83,5 [A24EE42E] [D21F62C9] CRC32 04 86,0 [CE7D6A95] [4BEDE131] CRC32 05 81,3 [5635F51C] [EF457FF6] CRC32 06 99,2 [F96162C7] [0012A7F4] CRC32 07 83,2 [9392CFA0] [E7F88E25] CRC32 08 76,8 [7EB160AF] [E2A01663] CRC32 09 79,3 [B111BC6A] [C221546D] CRC32 10 59,2 [7A37612D] [ADEE9410] CRC32 11 62,7 [3A9D3EC5] [94513853] CRC32 12 60,4 [98F4ED1E] [44B093B9] CRC32 13 60,0 [BBC5DFE0] [ACC044CC] CRC32 14 58,8 [D0638ED4] [395E1751] CRC32 15 62,4 [80C3666E] [0F491284] CRC32


Трекер:  [ 21-Фев-2012 12:18 ]

  

Скачать .torrent

Размер .torrent файла 12 KB


Размер: 134 MB
Хэш (hash) релиза: 3ccfc3754f4609c7a7c98d28e6ee0fea9211bc35

Еще никто не оставлял запись к записи скачать торрент Billie Holiday - Billie Holiday At Storyville . Будь первым!

!Обратная связь