Скачать через торрент музыку Cal Tjader & Carmen McRae - Heat Wave - 1982, FLAC бесплатно без регистрации torrent

Если у вас наблюдаются проблемы со скриншотами, переходом по ссылками, скачиванием торрентов - проблемы в блокировщике рекламы AdBlock. #хорошегоДня!


Статистика раздачи
Размер:  242 MB   |    Зарегистрирован:  5 лет 7 месяцев   |    .torrent скачан:  32 раза   |   
Раздают:  1  
   
Загрузка...
 
Автор Сообщение

Umakiro

avatar Umakiro


Cal Tjader & Carmen McRae – Heat Wave

Жанр: Latin Jazz, Vocal Jazz
Год издания диска: 1982
Издатель (лейбл): Concord
Номер по каталогу: CCD-4189
Аудиокодек: FLAC (*.flac)
Тип рипа: tracks+.cue
Битрейт аудио: lossless
Продолжительность: 41:58
Источник: вата
Наличие сканов в содержимом раздачи: сетевые

Треклист:
01. Heat Wave (3:08)
02. All In Love Is Fair (4:27)
03. Besame Mucho (5:27)
04. Evil Ways (5:16)
05. Do Nothing Till You Hear From Me (3:13)
06. Love (3:07)
07. Upside Down (4:33)
08. The Visit (4:14)
09. Speak Low (4:52)
10. Don't You Worry 'Bout A Thing (3:42)

Personnel:
Cal Tjader - vib
Carmen McRae - vo
Mark Levine (1, 4, 6, 10), Marshall Otwell (2, 3, 5, 7-9) - p
Rob Fisher - b
Vince Lateano - d
Poncho Sanchez - cga, perc
Ramon Banda - timb, perc
Al Bent, Mike Heathman - tb

Rec.: Coast Recorders, San Francisco, CA, January 1982.

 
 
Exact Audio Copy V0.99 prebeta 5 from 4. May 2009

EAC extraction logfile from 21. October 2009, 21:29

Cal Tjader and Carmen McRae / Heat Wave

Used drive : PIONEER DVD-RW DVR-212D Adapter: 3 ID: 0

Read mode : SecureUtilize accurate stream : YesDefeat audio cache : YesMake use of C2 pointers : No

Read offset correction : 48Overread into Lead-In and Lead-Out : NoFill up missing offset samples with silence : YesDelete leading and trailing silent blocks : NoNull samples used in CRC calculations : YesUsed interface : Native Win32 interface for Win NT & 2000Gap handling : Appended to previous track

Used output format : User Defined EncoderSelected bitrate : 320 kBit/sQuality : HighAdd ID3 tag : NoCommand line compressor : C:\Program Files\Exact Audio Copy\Flac\flac.exeAdditional command line options : -V -8 -T "artist=%a" -T "title=%t" -T "album=%g" -T "date=%y" -T "tracknumber=%n" -T "genre=%m" %s

TOC of the extracted CD

Track | Start | Length | Start sector | End sector --------------------------------------------------------- 1 | 0:00.37 | 3:07.38 | 37 | 14099 2 | 3:08.00 | 4:27.15 | 14100 | 34139 3 | 7:35.15 | 5:26.55 | 34140 | 58644 4 | 13:01.70 | 5:15.65 | 58645 | 82334 5 | 18:17.60 | 3:12.55 | 82335 | 96789 6 | 21:30.40 | 3:06.72 | 96790 | 110811 7 | 24:37.37 | 4:33.18 | 110812 | 131304 8 | 29:10.55 | 4:13.67 | 131305 | 150346 9 | 33:24.47 | 4:51.73 | 150347 | 172244 10 | 38:16.45 | 3:42.27 | 172245 | 188921

Track 1

Filename D:\Cal Tjader & Carmen McRae - Heat Wave [FLAC]\01. Heat Wave.wav

Pre-gap length 0:00:02.49

Peak level 86.6 % Track quality 100.0 % Test CRC E6B260DF Copy CRC E6B260DF Cannot be verified as accurate (confidence 2) [E0293969], AccurateRip returned [E8C57A95] Copy OK

Track 2

Filename D:\Cal Tjader & Carmen McRae - Heat Wave [FLAC]\02. All in Love Is Fair.wav

Pre-gap length 0:00:03.16

Peak level 87.4 % Track quality 100.0 % Test CRC 48DA883C Copy CRC 48DA883C Cannot be verified as accurate (confidence 2) [93F6AC55], AccurateRip returned [5136BF33] Copy OK

Track 3

Filename D:\Cal Tjader & Carmen McRae - Heat Wave [FLAC]\03. Besame Mucho.wav

Pre-gap length 0:00:03.76

Peak level 85.0 % Track quality 99.9 % Test CRC B37702B9 Copy CRC B37702B9 Track not present in AccurateRip database Copy OK

Track 4

Filename D:\Cal Tjader & Carmen McRae - Heat Wave [FLAC]\04. Evil Ways.wav

Pre-gap length 0:00:04.26

Peak level 97.6 % Track quality 100.0 % Test CRC B8E0CF81 Copy CRC B8E0CF81 Track not present in AccurateRip database Copy OK

Track 5

Filename D:\Cal Tjader & Carmen McRae - Heat Wave [FLAC]\05. Do Nothing Till You Hear from Me.wav

Pre-gap length 0:00:03.86

Peak level 95.5 % Track quality 100.0 % Test CRC 4E49B237 Copy CRC 4E49B237 Track not present in AccurateRip database Copy OK

Track 6

Filename D:\Cal Tjader & Carmen McRae - Heat Wave [FLAC]\06. Love.wav

Pre-gap length 0:00:03.16

Peak level 86.5 % Track quality 99.9 % Test CRC 12B758D2 Copy CRC 12B758D2 Track not present in AccurateRip database Copy OK

Track 7

Filename D:\Cal Tjader & Carmen McRae - Heat Wave [FLAC]\07. Upside Down.wav

Pre-gap length 0:00:03.20

Peak level 90.6 % Track quality 100.0 % Test CRC 6964A2A7 Copy CRC 6964A2A7 Track not present in AccurateRip database Copy OK

Track 8

Filename D:\Cal Tjader & Carmen McRae - Heat Wave [FLAC]\08. The Visit.wav

Pre-gap length 0:00:02.96

Peak level 67.5 % Track quality 100.0 % Test CRC B7A12357 Copy CRC B7A12357 Track not present in AccurateRip database Copy OK

Track 9

Filename D:\Cal Tjader & Carmen McRae - Heat Wave [FLAC]\09. Speak Low.wav

Pre-gap length 0:00:02.93

Peak level 84.7 % Track quality 100.0 % Test CRC 07A3E89E Copy CRC 07A3E89E Track not present in AccurateRip database Copy OK

Track 10

Filename D:\Cal Tjader & Carmen McRae - Heat Wave [FLAC]\10. Don't You Worry 'Bout a Thing.wav

Pre-gap length 0:00:03.80

Peak level 95.3 % Track quality 100.0 % Test CRC 3FB55CA1 Copy CRC 3FB55CA1 Track not present in AccurateRip database Copy OK

2 track(s) could not be verified as accurate 8 track(s) not present in the AccurateRip database

No tracks could be verified as accurateYou may have a different pressing from the one(s) in the database

No errors occurred

End of status report
 
REM GENRE JazzREM DATE 1982REM DISCID 9009D60AREM COMMENT "ExactAudioCopy v0.99pb5"FILE "01. Heat Wave.wav" WAVE TRACK 01 AUDIO PREGAP 00:00:37 INDEX 01 00:00:00 TRACK 02 AUDIO INDEX 00 03:04:26FILE "02. All in Love Is Fair.wav" WAVE INDEX 01 00:00:00 TRACK 03 AUDIO INDEX 00 04:23:33FILE "03. Besame Mucho.wav" WAVE INDEX 01 00:00:00 TRACK 04 AUDIO INDEX 00 05:22:35FILE "04. Evil Ways.wav" WAVE INDEX 01 00:00:00 TRACK 05 AUDIO INDEX 00 05:12:00FILE "05. Do Nothing Till You Hear from Me.wav" WAVE INDEX 01 00:00:00 TRACK 06 AUDIO INDEX 00 03:09:43FILE "06. Love.wav" WAVE INDEX 01 00:00:00 TRACK 07 AUDIO INDEX 00 03:03:57FILE "07. Upside Down.wav" WAVE INDEX 01 00:00:00 TRACK 08 AUDIO INDEX 00 04:30:21FILE "08. The Visit.wav" WAVE INDEX 01 00:00:00 TRACK 09 AUDIO INDEX 00 04:10:72FILE "09. Speak Low.wav" WAVE INDEX 01 00:00:00 TRACK 10 AUDIO INDEX 00 04:48:13FILE "10. Don't You Worry 'Bout a Thing.wav" WAVE INDEX 01 00:00:00


Трекер:  [ 21-Фев-2012 12:17 ]

  

Скачать .torrent

Размер .torrent файла 20 KB


Размер: 242 MB
Хэш (hash) релиза: 88ee7bda3fc78f0902f4620abe00c26628ce7a8a

Еще никто не оставлял запись к записи скачать торрент Cal Tjader & Carmen McRae - Heat Wave - 1982, FLAC . Будь первым!

!Обратная связь