Скачать через торрент музыку Rudy Linka — Czech It Out — 1994, FLAC бесплатно без регистрации torrent

Если у вас наблюдаются проблемы со скриншотами, переходом по ссылками, скачиванием торрентов - проблемы в блокировщике рекламы AdBlock. #хорошегоДня!


Статистика раздачи
Размер:  323 MB   |    Зарегистрирован:  5 лет 8 месяцев   |    .torrent скачан:  21 раз   |   
Раздают:  1  
   
Загрузка...
 
Автор Сообщение

Umakiro

avatar Umakiro


Rudy Linka — Czech It Out

Жанр: Post-Bop
Год издания диска: 1994
Лейбл: Enja
Номер по каталогу: ENJ 9001-2
Аудиокодек: FLAC (*.flac)
Тип рипа: image+.cue
Битрейт аудио: lossless
Продолжительность: 52:54
Риппер: PCWhizzkid
Сканы есть

Треклист:
01. Old & New (Orleans) (5:20)
02. Just On Time (5:59)
03. Uptown Express (4:20)
04. How Deep Is The Ocean (7:15)
05. Traveler (4:08)
06. Welcome To The Club (5:14)
07. Folk Song (5:47)
08. At This Point (7:23)
09. Love Letters (7:28)

Personnel:
Rudy Linka - g
George Mraz - b
Marvin "Smitty" Smith - d
 
Exact Audio Copy V1.0 beta 1 from 15. November 2010

EAC extraction logfile from 12. July 2011, 11:41

Rudy Linka / Czech It Out

Used drive : HL-DT-STDVDRAM GH22NS40 Adapter: 5 ID: 0

Read mode : SecureUtilize accurate stream : YesDefeat audio cache : YesMake use of C2 pointers : No

Read offset correction : 667Overread into Lead-In and Lead-Out : NoFill up missing offset samples with silence : YesDelete leading and trailing silent blocks : NoNull samples used in CRC calculations : YesUsed interface : Native Win32 interface for Win NT & 2000

Used output format : User Defined EncoderSelected bitrate : 1024 kBit/sQuality : HighAdd ID3 tag : NoCommand line compressor : C:\Program Files (x86)\Exact Audio Copy\FLAC\FLAC.EXEAdditional command line options : -6 -V -T "ARTIST=%a" -T "TITLE=%t" -T "ALBUM=%g" -T "DATE=%y" -T "TRACKNUMBER=%n" -T "GENRE=%m" -T "COMMENT=%e" %j--picture="%i"%j %s -o %d

TOC of the extracted CD

Track | Start | Length | Start sector | End sector --------------------------------------------------------- 1 | 0:00.00 | 5:20.07 | 0 | 24006 2 | 5:20.07 | 5:59.05 | 24007 | 50936 3 | 11:19.12 | 4:20.20 | 50937 | 70456 4 | 15:39.32 | 7:15.13 | 70457 | 103094 5 | 22:54.45 | 4:07.50 | 103095 | 121669 6 | 27:02.20 | 5:13.45 | 121670 | 145189 7 | 32:15.65 | 5:47.25 | 145190 | 171239 8 | 38:03.15 | 7:22.57 | 171240 | 204446 9 | 45:25.72 | 7:27.65 | 204447 | 238036

Range status and errors

Selected range

Filename T:\Rudy Linka - Czech It Out\Rudy Linka - Czech It Out.wav

Peak level 100.0 % Extraction speed 0.2 X Range quality 100.0 % Test CRC E67DD7E6 Copy CRC E67DD7E6 Copy OK

No errors occurred

AccurateRip summary

Track 1 accurately ripped (confidence 7) [B477DC84]Track 2 accurately ripped (confidence 7) [DDD7C4B2]Track 3 accurately ripped (confidence 7) [8352A4C0]Track 4 accurately ripped (confidence 7) [D5C181DD]Track 5 accurately ripped (confidence 7) [E5C00D4C]Track 6 accurately ripped (confidence 7) [7766438E]Track 7 accurately ripped (confidence 7) [B45D8708]Track 8 accurately ripped (confidence 7) [7A76D57F]Track 9 accurately ripped (confidence 5) [DD9B62CA]

All tracks accurately ripped

End of status report

==== Log checksum CC2123DEEB1702127D89FDE5AC3963EF2AF01847896A025FE2947C1DCD80D8ED ====
 
REM GENRE JazzREM DATE 1994REM DISCID 7B0C6509REM COMMENT "ExactAudioCopy v1.0b1"PERFORMER "Rudy Linka"TITLE "Czech It Out"FILE "Rudy Linka - Czech It Out.flac" WAVE TRACK 01 AUDIO TITLE "Old & New (Orleans)" PERFORMER "Rudy Linka" INDEX 01 00:00:00 TRACK 02 AUDIO TITLE "Just On Time" PERFORMER "Rudy Linka" INDEX 00 05:17:62 INDEX 01 05:20:07 TRACK 03 AUDIO TITLE "Uptown Express" PERFORMER "Rudy Linka" INDEX 00 11:16:37 INDEX 01 11:19:12 TRACK 04 AUDIO TITLE "How Deep Is The Ocean" PERFORMER "Rudy Linka" INDEX 00 15:35:62 INDEX 01 15:39:32 TRACK 05 AUDIO TITLE "Traveler" PERFORMER "Rudy Linka" INDEX 00 22:53:00 INDEX 01 22:54:45 TRACK 06 AUDIO TITLE "Welcome To The Club" PERFORMER "Rudy Linka" INDEX 00 26:59:37 INDEX 01 27:02:20 TRACK 07 AUDIO TITLE "Folk Song" PERFORMER "Rudy Linka" INDEX 00 32:13:50 INDEX 01 32:15:65 TRACK 08 AUDIO TITLE "At This Point" PERFORMER "Rudy Linka" INDEX 00 38:00:37 INDEX 01 38:03:15 TRACK 09 AUDIO TITLE "Love Letters" PERFORMER "Rudy Linka" INDEX 00 45:23:37 INDEX 01 45:25:72


Трекер:  [ 21-Фев-2012 12:15 ]

  

Скачать .torrent

Размер .torrent файла 7 KB


Размер: 323 MB
Хэш (hash) релиза: bf992892f4c7cea1c721af794ae91667414a966a

Еще никто не оставлял запись к записи скачать торрент Rudy Linka — Czech It Out — 1994, FLAC . Будь первым!

!Обратная связь