Скачать через торрент музыку Teddy Edwards Quartet - Good Gravy! - 1961, FLAC бесплатно без регистрации torrent

Если у вас наблюдаются проблемы со скриншотами, переходом по ссылками, скачиванием торрентов - проблемы в блокировщике рекламы AdBlock. #хорошегоДня!


Статистика раздачи
Размер:  255 MB   |    Зарегистрирован:  5 лет 8 месяцев   |    .torrent скачан:  28 раз   |   
Раздают:  1  
   
Загрузка...
 
Автор Сообщение

Umakiro

avatar Umakiro


Teddy Edwards Quartet - Good Gravy!

Жанр: Hard Bop
Страна-производитель диска: США
Год издания диска: 1991
Издатель (лейбл): Contemporary/OJC
Номер по каталогу: OJCCD-661-2 (S-7592)
Аудиокодек: FLAC (*.flac)
Тип рипа: tracks+.cue
Битрейт аудио: lossless
Продолжительность: 41:17
Источник (релизер): Mazeppa (hqshare)
Наличие сканов в содержимом раздачи: да

Треклист:
01. Good Gravy (Edwards) - 5:26
02. Could You Forget (Edwards) - 5:40
03. A Stairway to the Stars (Parish-Malneck-Signorelli) - 4:39
04. A Little Later (Meeks) - 4:14
05. On Green Dolphin Street (Kaper-Washington) - 5:23
06. Just Friends (Klenner-Lewis) - 5:17
07. Laura (Mercer-Raksin) - 3:16
08. Yes, I'll Be Ready (Edwards) - 4:03
09. Not So Strange (Edwards) - 3:02

Состав:
Teddy Edwards - tenor saxophone
Phineas Newborn, Jr. (#4,5), Danny Horton (#1-3,6-9) - piano
Leroy Vinnegar - bass
Milt Turner - drums

Recorded at Contemporary Records, Los Angeles on August 23-25, 1961.
 
EAC extraction logfile from 10. September 2006, 21:09 for CDTeddy Edwards Quartet / Good Gravy!

Used drive : LITE-ON CD-ROM LTN-527T Adapter: 1 ID: 1Read mode : Secure with NO C2, accurate stream, disable cacheRead offset correction : 12Overread into Lead-In and Lead-Out : No

Used output format : C:\Program Files\FLAC\flac.exe (User Defined Encoder) 320 kBit/s Additional command line options : -V -8 -T "artist=%a" -T "title=%t" -T "album=%g" -T "date=%y" -T "tracknumber=%n" -T "genre=%m" %s

Other options : Fill up missing offset samples with silence : Yes Delete leading and trailing silent blocks : No Installed external ASPI interface

Track 1 Filename F:\Downloads\Teddy Edwards - Good Gravy (OJC 1961)[FLAC][Scans]\01 - Good Gravy.wav

Pre-gap length 0:00:02.00

Peak level 100.0 % Track quality 100.0 % Test CRC 817AB160 Copy CRC 817AB160 Copy OK

Track 2 Filename F:\Downloads\Teddy Edwards - Good Gravy (OJC 1961)[FLAC][Scans]\02 - Could You Forget.wav

Pre-gap length 0:00:03.30

Peak level 99.9 % Track quality 99.9 % Test CRC F982FE08 Copy CRC F982FE08 Copy OK

Track 3 Filename F:\Downloads\Teddy Edwards - Good Gravy (OJC 1961)[FLAC][Scans]\03 - A Stairway To The Stars.wav

Pre-gap length 0:00:03.15

Peak level 54.9 % Track quality 100.0 % Test CRC CB520A11 Copy CRC CB520A11 Copy OK

Track 4 Filename F:\Downloads\Teddy Edwards - Good Gravy (OJC 1961)[FLAC][Scans]\04 - A Little Later.wav

Pre-gap length 0:00:03.23

Peak level 99.9 % Track quality 100.0 % Test CRC ED5FE701 Copy CRC ED5FE701 Copy OK

Track 5 Filename F:\Downloads\Teddy Edwards - Good Gravy (OJC 1961)[FLAC][Scans]\05 - On Green Dolphin Street.wav

Pre-gap length 0:00:02.25

Peak level 98.5 % Track quality 100.0 % Test CRC 7A88FFC4 Copy CRC 7A88FFC4 Copy OK

Track 6 Filename F:\Downloads\Teddy Edwards - Good Gravy (OJC 1961)[FLAC][Scans]\06 - Just Friends.wav

Pre-gap length 0:00:04.15

Peak level 100.0 % Track quality 100.0 % Test CRC 3236B9CA Copy CRC 3236B9CA Copy OK

Track 7 Filename F:\Downloads\Teddy Edwards - Good Gravy (OJC 1961)[FLAC][Scans]\07 - Laura.wav

Pre-gap length 0:00:03.35

Peak level 52.1 % Track quality 99.9 % Test CRC 936BFFFA Copy CRC 936BFFFA Copy OK

Track 8 Filename F:\Downloads\Teddy Edwards - Good Gravy (OJC 1961)[FLAC][Scans]\08 - Yes, I'll Be Ready.wav

Pre-gap length 0:00:03.37

Peak level 89.0 % Track quality 100.0 % Test CRC 2681FA27 Copy CRC 2681FA27 Copy OK

Track 9 Filename F:\Downloads\Teddy Edwards - Good Gravy (OJC 1961)[FLAC][Scans]\09 - Not So Strange.wav

Pre-gap length 0:00:02.35

Peak level 96.9 % Track quality 99.9 % Test CRC 8BBB6026 Copy CRC 8BBB6026 Copy OK

No errors occured

End of status report
 
REM GENRE JazzREM DATE 1961REM DISCID 6C09AF09REM COMMENT "ExactAudioCopy v0.95b4"PERFORMER "Teddy Edwards Quartet"TITLE "Good Gravy!"FILE "01 - Good Gravy.wav" WAVE TRACK 01 AUDIO TITLE "Good Gravy" PERFORMER "Teddy Edwards Quartet" INDEX 01 00:00:00 TRACK 02 AUDIO TITLE "Could You Forget" PERFORMER "Teddy Edwards Quartet" INDEX 00 05:25:55FILE "02 - Could You Forget.wav" WAVE INDEX 01 00:00:00 TRACK 03 AUDIO TITLE "A Stairway to the Stars" PERFORMER "Teddy Edwards Quartet" INDEX 00 05:39:35FILE "03 - A Stairway to the Stars.wav" WAVE INDEX 01 00:00:00 TRACK 04 AUDIO TITLE "A Little Later" PERFORMER "Teddy Edwards Quartet" INDEX 00 04:38:52FILE "04 - A Little Later.wav" WAVE INDEX 01 00:00:00 TRACK 05 AUDIO TITLE "On Green Dolphin Street" PERFORMER "Teddy Edwards Quartet" INDEX 00 04:11:20FILE "05 - On Green Dolphin Street.wav" WAVE INDEX 01 00:00:00 TRACK 06 AUDIO TITLE "Just Friends" PERFORMER "Teddy Edwards Quartet" INDEX 00 05:21:10FILE "06 - Just Friends.wav" WAVE INDEX 01 00:00:00 TRACK 07 AUDIO TITLE "Laura" PERFORMER "Teddy Edwards Quartet" INDEX 00 05:18:50FILE "07 - Laura.wav" WAVE INDEX 01 00:00:00 TRACK 08 AUDIO TITLE "Yes, I'll Be Ready" PERFORMER "Teddy Edwards Quartet" INDEX 00 03:16:55FILE "08 - Yes, I'll Be Ready.wav" WAVE INDEX 01 00:00:00 TRACK 09 AUDIO TITLE "Not So Strange" PERFORMER "Teddy Edwards Quartet" INDEX 00 04:01:23FILE "09 - Not So Strange.wav" WAVE INDEX 01 00:00:00
Teddy Edwards has long been one of the most underrated of the bop tenors, due in large part to his decision to settle in Los Angeles. Edwards is in typically swinging form on this quartet date with either Phineas Newborn, Jr., or Danny Horton on piano, bassist Leroy Vinnegar and drummer Milt Turner. The tenor contributed four originals and also performs the obscure "A Little Later" and four standards with warmth and creativity within the hard bop genre.


Трекер:  [ 21-Фев-2012 12:14 ]

  

Скачать .torrent

Размер .torrent файла 21 KB


Размер: 255 MB
Хэш (hash) релиза: 5d34d075bee552d76a7ef5bbe55fecea6703b7c3

Еще никто не оставлял запись к записи скачать торрент Teddy Edwards Quartet - Good Gravy! - 1961, FLAC . Будь первым!

!Обратная связь