Скачать через торрент музыку Pat Metheny with Christian McBride & Antonio Sanchez - Tokyo Day Trip Live EP - 2008, APE бесплатно без регистрации torrent

Если у вас наблюдаются проблемы со скриншотами, переходом по ссылками, скачиванием торрентов - проблемы в блокировщике рекламы AdBlock. #хорошегоДня!


Статистика раздачи
Размер:  246 MB   |    Зарегистрирован:  5 лет 8 месяцев   |    .torrent скачан:  49 раз   |   
Раздают:  1  
   
Загрузка...
 
Автор Сообщение

Umakiro

avatar Umakiro


Pat Metheny with Christian McBride & Antonio Sanchez - Tokyo Day Trip Live EP

Жанр: Genre: Jazz / Post-Bop
Год выпуска диска: 2008
Производитель диска: USA
Аудио кодек: APE
Тип рипа: image+.cue
Битрейт аудио: lossless
Продолжительность: 0:40:33
Трэклист:

1. Tromso - Metheny 9:42
2. Traveling Fast - Metheny 11:51
3. Inori - Metheny 6:01
4. Back Arm & Blackcharge - Metheny 6:32
5. The Night Becomes You - Metheny 6:16

Pat Metheny Guitar (Acoustic), Guitar, Sitar (Electric), Guitar (Baritone)
Christian McBride Bass (Acoustic)
Antonio Sanchez Drums, Orchestra Bells
Review by Thom Jurek
The Pat Metheny Trio's Tokyo Day Trip EP collects five tracks that were originally issued as bonus tracks on different projects — in Japan and by Nonesuch — and offers them to fans for a bargain price tag. This is no mere marketing gag. For a long time now, fans have been requesting these cuts, all of which were recorded before the trio went in to record the phenomenal Day Trip album that was released in January of 2008. Metheny, bassist Christian McBride, and drummer Antonio Sanchez offer a solid and wildly diverse 40-minute set of music. The disc opens with the lengthy introspective and wonderfully atmospheric electric ballad "Tromso." It's followed by the guitarist's trademark euphoric and sophisticated post-bop jazz "Traveling Fast" and the acoustic pastoral piece "Inori." "The Night Becomes You," which closes the set, is a gorgeous impressionistic jazz ballad that marries Metheny's harmonic palette with Bill Evans' lyric sensibility and sense of sparseness. These four cuts are all worthy additions to Metheny's catalog and make for a compelling listen. All of this said, the real icing on the cake for many will be the kinetic, knotty, and overdriven "Back Arm & Blackcharge," which places the trio firmly in the category of electric jazz-rock — all the more impressive given the fact that McBride plays an acoustic bass on it. Long, loud, labyrinthine lines flow from Metheny's guitar, wedding bebop, funk, controlled feedback, choppy Hendrixian chord voicings, and a pure rockist's sense of attack to a rhythm section set on stun. Sanchez's breakbeats and triple-time polyrhythmic inversions take in jazz history from Gene Krupa and Max Roach to Elvin Jones and postmodern Afro-Cuban clave extrapolations. McBride's force and brutally quick changes between single line and chords act as a bridge between Metheny and Sanchez — but all the while it's his game, given the way rhythms shift and interlock and create new pulses. This track alone is worth the price of admission, and makes the EP essential. Metheny, who understands his fan base better than just about any other jazz artist out there, knows that some fans already have some of these cuts, and has made the individual selections available as digital downloads as well.

с сайта allmusic.com
Exact Audio Copy V0.99 prebeta 4 from 23. January 2008

EAC extraction logfile from 28. November 2008, 0:52

Metheny, Pat/ Christian McBride/ Antonio Sanchez / Tokyo Day Trip Live EP

Used drive : PLEXTOR CD-R PX-W5224A Adapter: 2 ID: 0

Read mode : Secure
Utilize accurate stream : Yes
Defeat audio cache : Yes
Make use of C2 pointers : No

Read offset correction : 30
Overread into Lead-In and Lead-Out : No
Fill up missing offset samples with silence : Yes
Delete leading and trailing silent blocks : No
Null samples used in CRC calculations : Yes
Used interface : Native Win32 interface for Win NT & 2000

Used output format : Internal WAV Routines
Sample format : 44.100 Hz; 16 Bit; Stereo

TOC of the extracted CD

Track | Start | Length | Start sector | End sector
---------------------------------------------------------
1 | 0:00.00 | 9:44.01 | 0 | 43800
2 | 9:44.01 | 11:53.52 | 43801 | 97327
3 | 21:37.53 | 6:03.42 | 97328 | 124594
4 | 27:41.20 | 6:34.37 | 124595 | 154181
5 | 34:15.57 | 6:16.48 | 154182 | 182429

Range status and errors

Selected range

Filename D:\_prereleases\Metheny, Pat - Tokyo Day Trip\Metheny, Pat Christian McBride Antonio Sanchez - Tokyo Day Trip Live EP.wav

Peak level 100.0 %
Range quality 99.9 %
Test CRC 56F40C6E
Copy CRC 56F40C6E
Copy OK

No errors occurred

AccurateRip summary

Track 1 cannot be verified as accurate (confidence 9) [6843C21F], AccurateRip returned [FC92202C]
Track 2 cannot be verified as accurate (confidence 9) [4B8AC60C], AccurateRip returned [7BE4D00C]
Track 3 cannot be verified as accurate (confidence 9) [46777B5E], AccurateRip returned [4F5D9D26]
Track 4 cannot be verified as accurate (confidence 9) [B2F5BADA], AccurateRip returned [BA2D901A]
Track 5 cannot be verified as accurate (confidence 9) [629A6FE0], AccurateRip returned [8827484E]

No tracks could be verified as accurate
You may have a different pressing from the one(s) in the database

End of status report
Доп. информация: Recorded live in Tokyo Japan

Трекер:  [ 21-Фев-2012 12:12 ]

  

Скачать .torrent

Размер .torrent файла 20 KB


Размер: 246 MB
Хэш (hash) релиза: b2e47198cc2b5ae33af707d1f32a02a3800b7165

Еще никто не оставлял запись к записи скачать торрент Pat Metheny with Christian McBride & Antonio Sanchez - Tokyo Day Trip Live EP - 2008, APE . Будь первым!

!Обратная связь